.
Авторизация | Регистрация
Хочешь лучшие торренты? Добавь свой email!
Добавить

Торрент скачать бесплатно

  • support: webmaster@btracker.club
» » Смешанные единоборства. UFC on ESPN 1: Main Card. Ngannou vs. Velasquez (18.02.2019) WEB-DLRip [H.264 / 720p-LQ] [hand made 50fps] [EN] торрент скачать бесплатно


    Смешанные единоборства. UFC on ESPN 1: Main Card. Ngannou vs. Velasquez (18.02.2019) WEB-DLRip [H.264 / 720p-LQ] [hand made 50fps] [EN] торрент скачать бесплатно

    Опубликовал: fregat | Дата: 21-02-2019, 05:00 | .torrent скачали: 0

    Смешанные единоборства. UFC on ESPN 1: Main Card. Ngannou vs. Velasquez (18.02.2019) WEB-DLRip [H.264 / 720p-LQ] [hand made 50fps] [EN]Телекомпания: Nova Sport 2 HD
    Жанр: Спорт, Единоборства
    Участники: Фрэнсис Нганну – Кейн Веласкес, Пол Фелдер – Джеймс Вик, Синтия Калвильо – Кортни Кейси, Алекс Касерес – Крон Грейси, Брайан Барберена – Висенте Луке, Андре Фили – Майлс Джури

    Описание
    Основной кард турнира UFC Phoenix, главным событием которого стал поединок в тяжелом весе между Фрэнсисом Нганну и Кейном Веласкесом.
    Релиз от: KOENiG
    Продолжительность: 02: 55: 44
    Качество видео: WEB-DLRip
    Перевод: отсутствует
    Язык озвучки: Английский
    Субтитры: отсутствуют
    Видео: AVC/H.264, 1280x720 (16: 9), ~ 3268 Kbps, 50 fps
    Аудио: MP2, 48 kHz, 2 ch, 160 Kbps

    General
    Unique ID : 311701795005741038575828595369087354967 (0xEA7F9502AD07227ED746F6476F584857)
    Complete name : E: UFCUFC.on.ESPN.1.Main.Card.720p.KOENiG.mkv
    Format : Matroska
    Format version : Version 4
    File size : 4.29 GiB
    Duration : 2 h 55 min
    Overall bit rate : 3 497 kb/s
    Encoded date : UTC 2019-02-18 05: 00: 05
    Writing application : mkvmerge v31.0.0 (\'Dolores In A Shoestand\') 64-bit
    Writing library : libebml v1.3.6 + libmatroska v1.4.9
    Video
    ID : 1
    Format : AVC
    Format/Info : Advanced Video Codec
    Format profile : High@L4.1
    Format settings : CABAC/5 Ref Frames
    Format settings, CABAC : Yes
    Format settings, ReFrames : 5 frames
    Codec ID : V_MPEG4/ISO/AVC
    Duration : 2 h 55 min
    Bit rate : 3 268 kb/s
    Width : 1 280 pixels
    Height : 720 pixels
    Display aspect ratio : 16: 9
    Frame rate mode : Constant
    Frame rate : 50.000 FPS
    Color space : YUV
    Chroma subsampling : 4: 2: 0
    Bit depth : 8 bits
    Scan type : Progressive
    Bits/(Pixel*Frame) : 0.071
    Stream size : 4.01 GiB (93%)
    Writing library : x264 core 157 r2935 545de2f
    Encoding settings : cabac=1/ref=5/deblock=1: 0: 0/analyse=0x3: 0x113/me=hex/subme=8/psy=1/psy_rd=1.00: 0.00/mixed_ref=1/me_range=16/chroma_me=1/trellis=2/8x8dct=1/cqm=0/deadzone=21, 11/fast_pskip=1/chroma_qp_offset=-2/threads=18/lookahead_threads=3/sliced_threads=0/nr=0/decimate=1/interlaced=0/bluray_compat=0/constrained_intra=0/bframes=3/b_pyramid=2/b_adapt=1/b_bias=0/direct=3/weightb=1/open_gop=0/weightp=2/keyint=250/keyint_min=25/scenecut=40/intra_refresh=0/rc_lookahead=50/rc=crf/mbtree=1/crf=22.0/qcomp=0.60/qpmin=0/qpmax=69/qpstep=4/ip_ratio=1.40/aq=1: 1.00
    Default : Yes
    Forced : No
    Color range : Limited
    Matrix coefficients : BT.709
    Audio
    ID : 2
    Format : MPEG Audio
    Format version : Version 1
    Format profile : Layer 2
    Codec ID : A_MPEG/L2
    Codec ID/Hint : MP2
    Duration : 2 h 55 min
    Bit rate mode : Constant
    Bit rate : 160 kb/s
    Channel(s) : 2 channels
    Sampling rate : 48.0 kHz
    Compression mode : Lossy
    Stream size : 201 MiB (5%)
    Language : English
    Default : Yes
    Forced : No

    Скриншоты для ознакомления



    Все одноименные релизы в Клубе
    Время раздачи: 24/7 (до появления первых 3-5 скачавших)


    Смешанные единоборства. UFC on ESPN 1: Main Card. Ngannou vs. Velasquez (18.02.2019) WEB-DLRip [H.264/720p-LQ] [hand made 50fps] [EN]
    Рейтинг →
     (голосов: 1, оценка 5/5, голосовать можно 1 раз )

    Другие торренты по теме:

  • Смешанные единоборства. Rizin FF 1. (29.12.2015) HDTVRip [H.264 / 720p-LQ] скачать через торрент бесплатно
  • Смешанные единоборства. Rizin FF 1. (31.12.2015) HDTVRip [H.264 / 720p-LQ] скачать через торрент бесплатно
  • Смешанные единоборства. UFC on Fox 18 / Johnson vs Bader + Main Card. (30.01.2016) HDTVRip [H.264 / 720p-LQ]
  • Смешанные единоборства. UFC Fight Night 82: Hendricks vs. Thompson. (06.02.2016) WEB-DL [H.264 / 720p-LQ] [EN]
  • Смешанные единоборства. UFC Fight Night 83: Cowboy vs. Cowboy. (21.02.2016) WEB-DL [H.264 / 720p-LQ] [EN]
  • Смешанные единоборства. Bellator 150. Kongo vs. Queiroz. Main card. (26.02.2016) HDTVRip [H.264 / 720p-LQ]
  • Смешанные единоборства. Fight Nights Global 44. (26.02.2016) HDTVRip [H.264 / 720p-LQ]
  • Смешанные единоборства. UFC Fight Night 84: Silva vs. Bisping. (27.02.2016) WEB-DL [H.264 / 720p-LQ] [EN]


    • Комментарии (0):

      Информация

      Информация

        Посетители, находящиеся в группе Гости, не могут оставлять комментарии в данной новости.

        ↓ Меню




        ↓ Опрос

        Вы добавили сайт в закладки?
        Да
        Нет


        Top 10 за месяц (Передачи)