.
Авторизация | Регистрация

Торрент скачать бесплатно

  • support: webmaster@btracker.club
» » Зачем Америке биатлон. Специальный репортаж (2019) HDTV [H.264 / 1080i-LQ] торрент скачать бесплатно


    Зачем Америке биатлон. Специальный репортаж (2019) HDTV [H.264 / 1080i-LQ] торрент скачать бесплатно

    Дата: 21-02-2019, 05:00 | .torrent скачали: 2

    Зачем Америке биатлон. Специальный репортаж (2019) HDTV [H.264 / 1080i-LQ]Телекомпания: Матч ТВ HD
    Жанр: Документальный, Спорт

    Описание

    Насколько самый популярный зимний вид спорта востребован по ту сторону океана? И нужен ли он Америке?
    3-й раз за последние 8 лет Кубок мира выезжает за океан. Не так давно завершился этап в канадском Кэнморе, скомканный из-за лютых морозов, а теперь биатлонная элита перебралась в столицу Олимпиады-2002 — Солт-Лейк-Сити.
    Корреспондент Матч ТВ Илья Трифанов решил задаться вопросом: а нужен ли биатлон Америке? Ответ вы найдете в его одноименном фильме.
    Продолжительность: 00: 15: 12
    Качество видео: HDTV
    Язык озвучки: Русский
    Субтитры: отсутствуют
    Видео: AVC/H.264, 1920x1080 (16: 9), ~7524 Kbps
    Аудио #1: MP2, 2 ch, 48 kHz, 192 Kbps
    Аудио #2: MP2, 2 ch, 48 kHz, 192 Kbps

    Общее
    Идентификатор : 1 (0x1)
    Полное имя : F: videosЗачем Америке биатлон.ts
    Формат : MPEG-TS
    Размер файла : 906 Мбайт
    Продолжительность : 15 м. 12 с.
    Режим общего битрейта : Переменный
    Общий поток : 8323 Кбит/сек
    Видео
    Идентификатор : 204 (0xCC)
    Идентификатор меню : 2204 (0x89C)
    Формат : AVC
    Формат/Информация : Advanced Video Codec
    Профиль формата : High@L4
    Настройки формата : CABAC/4 Ref Frames
    Параметр CABAC формата : Да
    Параметр RefFrames формата : 4 кадра
    Идентификатор кодека : 27
    Продолжительность : 15 м. 12 с.
    Битрейт : 7524 Кбит/сек
    Ширина : 1920 пикселей
    Высота : 1080 пикселей
    Соотношение сторон : 16: 9
    Частота кадров : 25, 000 кадров/сек
    Стандарт вещания : Component
    Цветовое пространство : YUV
    Субдискретизация насыщенности : 4: 2: 0
    Битовая глубина : 8 бит
    Тип развёртки : Чересстрочная
    Метод сохранения типа развёртки : Раздельные поля
    Порядок развёртки : Верхнее поле первое
    Бит/(Пиксели*Кадры) : 0.145
    Размер потока : 819 Мбайт (90%)
    Цветовой диапазон : Limited
    Основные цвета : BT.709
    Характеристики трансфера : BT.709
    Коэффициенты матрицы : BT.709
    Аудио #1
    Идентификатор : 304 (0x130)
    Идентификатор меню : 2204 (0x89C)
    Формат : MPEG Audio
    Версия формата : Version 1
    Профиль формата : Layer 2
    Идентификатор кодека : 3
    Продолжительность : 15 м. 12 с.
    Вид битрейта : Постоянный
    Битрейт : 192 Кбит/сек
    Каналы : 2 канала
    Частота : 48, 0 КГц
    Частота кадров : 41, 667 кадра/сек (1152 SPF)
    Метод сжатия : С потерями
    Задержка видео : -120 мс.
    Размер потока : 20, 9 Мбайт (2%)
    Язык : Russian
    Аудио #2
    Идентификатор : 305 (0x131)
    Идентификатор меню : 2204 (0x89C)
    Формат : MPEG Audio
    Версия формата : Version 1
    Профиль формата : Layer 2
    Идентификатор кодека : 3
    Продолжительность : 15 м. 12 с.
    Вид битрейта : Постоянный
    Битрейт : 192 Кбит/сек
    Каналы : 2 канала
    Частота : 48, 0 КГц
    Частота кадров : 41, 667 кадра/сек (1152 SPF)
    Метод сжатия : С потерями
    Задержка видео : -120 мс.
    Размер потока : 20, 9 Мбайт (2%)

    Скриншоты для ознакомления



    Все одноименные релизы в Клубе
    Время раздачи: 24/7 (до появления первых 3-5 скачавших)


    Зачем Америке биатлон. Специальный репортаж (2019) HDTV [H.264/1080i-LQ]
    Рейтинг →
     (голосов: 1, оценка 5/5, голосовать можно 1 раз )

    Другие торренты по теме:

  • Зачем Америке нужна Большая Война в Европе (2015) WEBRip скачать через торрент бесплатно
  • Зачем Америке биатлон. Специальный репортаж (2019) HDTVRip [H.264 / 720p-LQ] [hand made 50fps]


    • Комментарии (0):

      Информация

      Информация

        Посетители, находящиеся в группе Гости, не могут оставлять комментарии в данной новости.

        ↓ Меню




        ↓ Опрос

        Вы добавили сайт в закладки?
        Да
        Нет


        Top 10 за месяц (Передачи)