.
Авторизация | Регистрация

Торрент скачать бесплатно

  • support: webmaster@btracker.club
» » Биатлон. Кубок Мира 2018-2019. 8-й Этап. Солт-Лейк Сити - Солджер Холлоу (США). Смешанная эстафета 2x6 + 2x7,5 км (2019) WEB-DL [H.264 / 720p-LQ] торрент скачать бесплатно


    Биатлон. Кубок Мира 2018-2019. 8-й Этап. Солт-Лейк Сити - Солджер Холлоу (США). Смешанная эстафета 2x6 + 2x7,5 км (2019) WEB-DL [H.264 / 720p-LQ] торрент скачать бесплатно

    Дата: 21-02-2019, 05:00 | .torrent скачали: 0

    Биатлон. Кубок Мира 2018-2019. 8-й Этап. Солт-Лейк Сити - Солджер Холлоу (США). Смешанная эстафета 2x6 + 2x7,5 км (2019) WEB-DL [H.264 / 720p-LQ]Телекомпания: Матч ТВ HD
    Жанр: Спорт
    Комментатор: Дмитрий Губерниев

    Описание
    18 февраля 2019 года, понедельник. 00: 05 МСК
    Кубок Мира по биатлону сезон любимого сериалаа 2018-2019.
    Этап 8. Солт-Лейк Сити - Солджер Холлоу (США):
    Смешанная эстафета 2x6 + 2x7, 5 км
    Продолжительность: 01: 23: 19
    Качество видео: WEB-DL
    Язык озвучки: Русский
    Субтитры: отсутствуют
    Видео: AVC/H.264, 1280x720 (16: 9), ~3636 Kbps
    Аудио: AAC, 2 ch, 128 Kbps

    Общее
    Уникальный идентификатор : 90047332585862210773671808039113841360 (0x43BE7C44BE23B688B9D038367ED5DAD0)
    Полное имя : F: SPORTБиатлонBMW IBU Biathlon World Cup 2018-2019.Salt Lake City(USA). Stage 8IBU BWC 18-19.8St. Soldier Hollow (USA). Mixed Relay 2x6+2x7.5.mkv
    Формат : Matroska
    Версия формата : Version 4
    Размер файла : 2, 19 Гбайт
    Продолжительность : 1 ч. 23 м.
    Общий поток : 3767 Кбит/сек
    Дата кодирования : UTC 2019-02-19 02: 06: 25
    Программа кодирования : mkvmerge v31.0.0 (\'Dolores In A Shoestand\') 64-bit
    Библиотека кодирования : libebml v1.3.6 + libmatroska v1.4.9
    Видео
    Идентификатор : 1
    Формат : AVC
    Формат/Информация : Advanced Video Codec
    Профиль формата : Baseline@L3.1
    Настройки формата : 3 Ref Frames
    Параметр CABAC формата : Нет
    Параметр RefFrames формата : 3 кадра
    Параметр GOP формата : M=1, N=25
    Идентификатор кодека : V_MPEG4/ISO/AVC
    Продолжительность : 1 ч. 23 м.
    Битрейт : 3636 Кбит/сек
    Ширина : 1280 пикселей
    Высота : 720 пикселей
    Соотношение сторон : 16: 9
    Режим частоты кадров : Постоянный
    Частота кадров : 25, 000 кадров/сек
    Цветовое пространство : YUV
    Субдискретизация насыщенности : 4: 2: 0
    Битовая глубина : 8 бит
    Тип развёртки : Прогрессивная
    Бит/(Пиксели*Кадры) : 0.158
    Размер потока : 2, 12 Гбайт (97%)
    Default : Да
    Forced : Нет
    Аудио
    Идентификатор : 2
    Формат : AAC LC
    Формат/Информация : Advanced Audio Codec Low Complexity
    Идентификатор кодека : A_AAC-2
    Продолжительность : 1 ч. 23 м.
    Битрейт : 128 Кбит/сек
    Каналы : 2 канала
    Channel layout : L R
    Частота : 44, 1 КГц
    Частота кадров : 43, 066 кадра/сек (1024 SPF)
    Метод сжатия : С потерями
    Размер потока : 76, 3 Мбайт (3%)
    Язык : Russian
    Default : Да
    Forced : Нет

    Скриншоты для ознакомления



    Все одноименные релизы в Клубе
    Время раздачи: 24/7 (около 1 месяца)


    Биатлон. Кубок Мира 2018-2019. 8-й Этап. Солт-Лейк Сити - Солджер Холлоу (США). Смешанная эстафета 2x6 + 2x7,5 км (2019) WEB-DL [H.264/720p-LQ]
    Рейтинг →
     (голосов: 1, оценка 5/5, голосовать можно 1 раз )

    Другие торренты по теме:

  • Биатлон. Кубок Мира 2014-15. 4-й этап. Оберхоф (Германия). Эстафета. Мужчины (2015) HDTV [H.264 / 1080i]
  • Биатлон. Кубок Мира 2015-2016. 1 Этап. Эстерсунд (Швеция) (29.11.2015-06.12.2015) HDTVRip [H.264 / 720p-LQ] [hand made 50fps] скачать через торрент бесплатно
  • Биатлон. Кубок Мира 2015-2016. 2 Этап Хохфильцен (Австрия). Спринт (11.12.2015) HDTVRip [H.264 / 720p-LQ] скачать через торрент бесплатно
  • Биатлон. Кубок Мира 2015-2016. 2 Этап. Хохфильцен(Австрия). Гонка преследования (12.12.2015) HDTVRip [H.264 / 720p-LQ] скачать через торрент бесплатно
  • Биатлон. Кубок Мира 2015-2016. 2 Этап. Хохфильцен(Австрия). Эстафета (13.12.2015) HDTVRip [H.264 / 720p-LQ] скачать через торрент бесплатно
  • Биатлон. Кубок Мира 2015-2016. 3 Этап.Поклюка(Словения). Спринт 10 км Мужчины (17.12.2015) HDTVRip[H.264 / 720p-LQ] скачать через торрент бесплатно
  • Биатлон. Кубок Мира 2015-2016. 3 Этап. Поклюка(Словения). Гонка преследования (19.12.2015) HDTVRip [H.264 / 720p-LQ] скачать через торрент бесплатно
  • Биатлон. Кубок Мира 2015-2016. 3 Этап. Поклюка(Словения). Спринт 7,5 км Женщины (18.12.2015) HDTVRip[H.264 / 720p-LQ] скачать через торрент бесплатно


    • Комментарии (0):

      Информация

      Информация

        Посетители, находящиеся в группе Гости, не могут оставлять комментарии в данной новости.

        ↓ Меню




        ↓ Опрос

        Вы добавили сайт в закладки?
        Да
        Нет


        Top 10 за месяц (Передачи)