.
Авторизация | Регистрация
Хочешь лучшие торренты? Добавь свой email!
Добавить

Торрент скачать бесплатно

  • support: webmaster@btracker.club
» » Свидетели Путина / Putins Witnesses (2018) WEBRip [H.264 / 720p-LQ] [PR] торрент скачать бесплатно


    Свидетели Путина / Putins Witnesses (2018) WEBRip [H.264 / 720p-LQ] [PR] торрент скачать бесплатно

    Опубликовал: fregat | Дата: 2-01-2019, 05:00 | .torrent скачали: 102

    Свидетели Путина / Putins Witnesses (2018) WEBRip [H.264 / 720p-LQ] [PR]Производство: Латвия, Швейцария, Чехия, Германия/Vertov SIA, GoldenEggProduction, Hypermarket Film
    Жанр: Документальный, Политика, История
    Режиссер: Виталий Манский
    Участники: Владимир Путин, Борис Ельцин, Михаил Горбачев, Дмитрий Медведев, Наина Ельцина, Татьяна Дьяченко, Валентин Юмашев, Елена Окулова, Иван Окулов, Людмила Путина, Сергей Михалков, Никита Михалков, Вера Гуревич, Тони Блэр, и др.

    Описание

    События фильма начинаются 31 декабря 1999 года, когда россиянам представили их нового президента. Фильм основан на уникальных и строго документальных свидетельствах истинных причин и последствий операции преемник, в результате которой Россия оказалась с президентом, который правит страной до сих пор.

    Продолжительность: 01: 42: 25
    Качество видео: WEBRip 720p
    Субтитры: отсутствуют
    Видео: AVC/H.264, 1280x720, ~1300 Kbps
    Аудио: AAC, 2 ch, 128 Kbps

    Общее
    Уникальный идентификатор : 225698926738920571736205585294936190246 (0xA9CC083A798D3C44B79E00CC42172D26)
    Полное имя : C: UsersDeskopDesktopНовая папкаPutin\'s Witnesses.mkv
    Формат : Matroska
    Версия формата : Version 4/Version 2
    Размер файла : 1, 02 Гбайт
    Продолжительность : 1 ч. 42 м.
    Общий поток : 1432 Кбит/сек
    Дата кодирования : UTC 2018-12-31 23: 23: 50
    Программа кодирования : mkvmerge v7.9.0 (\'Birds\') 64bit
    Библиотека кодирования : libebml v1.3.1 + libmatroska v1.4.2
    Видео
    Идентификатор : 1
    Формат : AVC
    Формат/Информация : Advanced Video Codec
    Профиль формата : High@L3.1
    Настройки формата : CABAC/5 Ref Frames
    Параметр CABAC формата : Да
    Параметр RefFrames формата : 5 кадров
    Идентификатор кодека : V_MPEG4/ISO/AVC
    Продолжительность : 1 ч. 42 м.
    Битрейт : 1300 Кбит/сек
    Ширина : 1280 пикселей
    Высота : 720 пикселей
    Соотношение сторон : 16: 9
    Режим частоты кадров : Постоянный
    Частота кадров : 25, 000 кадров/сек
    Цветовое пространство : YUV
    Субдискретизация насыщенности : 4: 2: 0
    Битовая глубина : 8 бит
    Тип развёртки : Прогрессивная
    Бит/(Пиксели*Кадры) : 0.056
    Размер потока : 950 Мбайт (91%)
    Библиотека кодирования : x264 core 152 r2851 ba24899
    Настройки программы : cabac=1/ref=5/deblock=1: 0: 0/analyse=0x3: 0x113/me=hex/subme=6/psy=1/psy_rd=1.00: 0.00/mixed_ref=1/me_range=16/chroma_me=1/trellis=1/8x8dct=1/cqm=0/deadzone=21, 11/fast_pskip=1/chroma_qp_offset=-2/threads=22/lookahead_threads=3/sliced_threads=0/nr=0/decimate=1/interlaced=0/bluray_compat=0/constrained_intra=0/bframes=3/b_pyramid=2/b_adapt=1/b_bias=0/direct=1/weightb=1/open_gop=0/weightp=1/keyint=100/keyint_min=51/scenecut=0/intra_refresh=0/rc_lookahead=30/rc=crf/mbtree=1/crf=22.0/qcomp=0.60/qpmin=0/qpmax=69/qpstep=4/vbv_maxrate=1536/vbv_bufsize=1835/crf_max=0.0/nal_hrd=none/filler=0/ip_ratio=1.40/aq=1: 1.00
    Язык : English
    Default : Да
    Forced : Нет
    Аудио
    Идентификатор : 2
    Формат : AAC
    Формат/Информация : Advanced Audio Codec
    Профиль формата : LC
    Идентификатор кодека : A_AAC-2
    Продолжительность : 1 ч. 42 м.
    Битрейт : 129 Кбит/сек
    Каналы : 2 канала
    Расположение каналов : Front: L R
    Частота : 44, 1 КГц
    Частота кадров : 43, 066 кадра/сек (1024 SPF)
    Метод сжатия : С потерями
    Задержка видео : -23 мс.
    Размер потока : 94, 6 Мбайт (9%)
    Язык : English
    Default : Да
    Forced : Нет


    Свидетели Путина/Putins Witnesses (2018) WEBRip [H.264/720p-LQ] [PR]
    Рейтинг →
     (голосов: 1, оценка 5/5, голосовать можно 1 раз )

    Другие торренты по теме:

  • А. Рекемчук | Двойное дно. «Свидетели Иеговы» (1959) [DJVU] скачать через торрент бесплатно
  • Свидетели / Les tеmoins / Witnesses (2014) WEB-DL [H.264 / 1080p-LQ] (сезон 1, серии 1-6 из 6) (Эй Би Видео) скачать через торрент бесплатно
  • Свидетели / Eyewitness (2015) HDTV [H.264 / 1080i]
  • Свидетели (2017) SATRip [H.264] (серии 1-4 из 20) (Обновляемая)
  • Свидетели (2017) HDTVRip (сезон 1, серии 1-12 из 12)
  • Свидетели (2017) HDTVRip (сезон 2, серии 1-20 из 20)
  • Свидетели (2017) HDTVRip (сезон 3, серии 1-20 из 20)
  • Анна Данилова | Звезды-свидетели. Витамин любви [сборник] (2013) [FB2]


    • Комментарии (0):

      Информация

      Информация

        Посетители, находящиеся в группе Гости, не могут оставлять комментарии в данной новости.

        ↓ Меню




        ↓ Опрос

        Вы добавили сайт в закладки?
        Да
        Нет


        Top 10 за месяц (Передачи)