.
Авторизация | Регистрация
Хочешь лучшие торренты? Добавь свой email!
Добавить

Торрент скачать бесплатно

  • support: webmaster@btracker.club
» » Камеди Клаб / Комеди Клаб / Comedy Club (2018.12.31-2019.01.01) SATRip торрент скачать бесплатно


    Камеди Клаб / Комеди Клаб / Comedy Club (2018.12.31-2019.01.01) SATRip торрент скачать бесплатно

    Опубликовал: fregat | Дата: 1-01-2019, 05:00 | .torrent скачали: 0

    Камеди Клаб / Комеди Клаб / Comedy Club (2018.12.31-2019.01.01) SATRipТелекомпания: ТНТ
    Жанр: Юмор

    Актеры
    Гарик Мартиросян, Вадим Галыгин, Павел Воля, Тимур Батрутдинов, Александр Ревва, Гавр, Олег Верещагин, Дмитрий Сорокин, Зураб Матуa, Андрей Аверин, Алексей Лихницкий, Роман Юнусов, Антон Лирник, Андрей Молочный, Александр Незлобин, Дмитрий Хрусталёв, Васильев Виктор, Сергей Бессмертный, Игорь Меерсон, Семён Слепаков, Михаил Галустян и др.

    Описание

    Главные претенденты на победу - сборная настоящих музыкантов, в состав которой вошли Полина Гагарина, Пелагея, Анна Седокова, ST, Гоша Куценко. Бой профессионалам попробуют дать комики Stand Up под предводительством Руслана Белого, команда Comedy Woman, сборная Однажды в России, дружный коллектив комедийно-музыкального шоу Студия СОЮЗ и великолепная четвёрка импровизаторов. Помимо команд, собранных из звезд ТНТ, за главный приз поборются Сборная сериалов, в состав которой вошли актёры Универа, Домашнего ареста, Ольги, Полицейского с Рублевки и Улицы, а также Сборная Интернета, представленная самыми популярными блогерами: Идой Галич, MANIZHA, Клавой Кокой, Кириллом Нечаевым, Kyivstoner и Яном Гордиенко. Победителя новогоднего караоке-баттла в Comedy Club определят члены жюри - Семён Слепаков и Михаил Галустян. Главный приз - поездка в Милан на концерт Эда Ширана.
    Продолжительность: 01: 26: 13
    Качество видео: SATRip
    Субтитры: Отсутствуют
    Видео: Xvid, 720x400 (16: 9), 1650 Kbps
    Аудио: MP3, 2 ch, 192 Kbps
    Общее
    Полное имя : D: Камеди Клаб. Новогодний Кaraoke Star (2018.12.31-2019.01.01).avi
    Формат : AVI
    Формат/Информация : Audio Video Interleave
    Размер файла : 1, 12 Гбайт
    Продолжительность : 1 ч. 26 м.
    Общий поток : 1851 Кбит/сек
    Программа кодирования : VirtualDubMod 1.5.10.3 (build 2550/release)
    Библиотека кодирования : VirtualDub build 35491/release
    Видео
    Идентификатор : 0
    Формат : MPEG-4 Visual
    Профиль формата : Advanced Simple@L5
    Настройки формата : BVOP2
    Параметр BVOP формата : 2
    Параметр QPel формата : Нет
    Параметр GMC формата : Без точки перехода
    Параметр матрицы формата : Default (MPEG)
    Режим смешивания : Сжатый битовый поток
    Идентификатор кодека : XVID
    Идентификатор кодека/Подсказка : XviD
    Продолжительность : 1 ч. 26 м.
    Битрейт : 1650 Кбит/сек
    Ширина : 720 пикселей
    Высота : 400 пикселей
    Соотношение сторон : 16: 9
    Частота кадров : 25, 000 кадров/сек
    Цветовое пространство : YUV
    Субдискретизация насыщенности : 4: 2: 0
    Битовая глубина : 8 бит
    Тип развёртки : Прогрессивная
    Метод сжатия : С потерями
    Бит/(Пиксели*Кадры) : 0.229
    Размер потока : 1018 Мбайт (89%)
    Библиотека кодирования : XviD 1.2.1 (UTC 2008-12-04)
    Аудио
    Идентификатор : 1
    Формат : MPEG Audio
    Версия формата : Version 1
    Профиль формата : Layer 3
    Настройки формата : Joint stereo/MS Stereo
    Идентификатор кодека : 55
    Идентификатор кодека/Подсказка : MP3
    Продолжительность : 1 ч. 26 м.
    Вид битрейта : Постоянный
    Битрейт : 192 Кбит/сек
    Каналы : 2 канала
    Частота : 48, 0 КГц
    Частота кадров : 41, 667 кадра/сек (1152 SPF)
    Метод сжатия : С потерями
    Размер потока : 118 Мбайт (10%)
    Выравнивание : Соединение по промежуткам
    Продолжительность промежутка : 40 мс. (1, 00 видеокадр)
    Время предзагрузки промежутка : 504 мс.
    Библиотека кодирования : LAME3.99r
    Настройки программы : -m j -V 4 -q 2 -lowpass 18.6 -b 192

    Скриншоты для ознакомления



    Все одноименные релизы в Клубе
    Время раздачи: 24/7 (круглосуточно) (до появления первых 3-5 скачавших)


    Камеди Клаб/Комеди Клаб/Comedy Club (2018.12.31-2019.01.01) SATRip
    Рейтинг →
     (голосов: 1, оценка 5/5, голосовать можно 1 раз )

    Другие торренты по теме:

  • Новый Камеди Клаб в Юрмале / Комеди Клаб / Comedy Club / Выпуск №15 (26.09.2014) WEB-DLRip
  • Камеди Клаб / Комеди Клаб / Comedy Club / Exclusive №45 (27.09.2014) WEB-DL [H.264 / 720p] [hand made 50fps]
  • Новый Камеди Клаб в Юрмале / Комеди Клаб / Comedy Cub. Выпуски 10-15 + Открытие фестиваля в Юрмале и интервью резидентов (2014.09.26) WEB-DL [H.264 / 720p-LQ] [Обновляемая]
  • Новый Камеди Клаб в Юрмале / Комеди Клаб / Comedy Club / Выпуски №10-15 (26.09.2014) SATRip [Обновляемая]
  • Камеди Клаб / Комеди Клаб / Comedy Club (10.10.2014) SATRip скачать через торрент бесплатно
  • Камеди Клаб / Комеди Клаб / Comedy Club / Спецвыпуск Лепс (10.10.2014) WEB-DL [H.264 / 720p] [hand made 50fps] скачать через торрент бесплатно
  • Камеди Клаб / Комеди Клаб / Comedy Club / Спецвыпуск Лепс (10.10.2014) WEBRip скачать через торрент бесплатно
  • Камеди Клаб / Комеди Клаб / Comedy Club / Exclusive №47 (11.10.2014) WEBRip скачать через торрент бесплатно


    • Комментарии (0):

      Информация

      Информация

        Посетители, находящиеся в группе Гости, не могут оставлять комментарии в данной новости.

        ↓ Меню




        ↓ Опрос

        Вы добавили сайт в закладки?
        Да
        Нет


        Top 10 за месяц (Передачи)