.
Авторизация | Регистрация
Хочешь лучшие торренты? Добавь свой email!
Добавить

Торрент скачать бесплатно

  • support: webmaster@btracker.club
» » Научное расследование Сергея Малозёмова. Еда живая и мертвая (31.12.2019) SATRip торрент скачать бесплатно


    Научное расследование Сергея Малозёмова. Еда живая и мертвая (31.12.2019) SATRip торрент скачать бесплатно

    Опубликовал: fregat | Дата: 1-01-2019, 05:00 | .torrent скачали: 0

    Научное расследование Сергея Малозёмова. Еда живая и мертвая (31.12.2019) SATRipТелекомпания: НТВ
    Жанр: Документальный, телепередача
    Ведущий: Сергей Малозёмов

    Описание

    Какой Новый год без салатов на столе! 31 декабря в программе Еда живая и мертвая - только салаты! Оливье, селедка под шубой, крабовый - кто и когда их придумал? Что в них хорошо, а что - плохо? Есть ли способ сделать их полезнее? Какие неожиданные версии придумывают современные повара? Стоит ли покупать готовые салаты в магазинах? Как приготовить селедку под шубой за несколько минут? Какой салат в Испании называют русским? А также - рецепты полезных и вкусных салатов за копейки! И в какой салат мягче всего падать лицом? Экстремальный тест-драйв самых популярных новогодних блюд.
    Еда живая и мертвая – новый научно-популярный цикл Сергея Малозёмова, репортера с медицинским образованием, автора и ведущего программы Чудо техники и научных расследований о климате, технологиях, бессмертии и экологии.
    Релиз от: -=FOX=-
    Продолжительность: 00: 44: 20
    Качество видео: SATRip
    Субтитры: Отсутствуют
    Видео: 720x448, 25.00 fps, 1800 kbps
    Аудио: MP3 48000Hz stereo 128kbps

    Общее
    Полное имя : Eda.zhivaja.i.mertvaja.2018.12.31.SATRip.avi
    Формат : AVI
    Формат/Информация : Audio Video Interleave
    Размер файла : 614 Мбайт
    Продолжительность : 44 м.
    Общий поток : 1938 Кбит/сек
    Программа кодирования : VirtualDubMod 1.5.10.3 |www.virtualdub-fr.org|| (build 2550/release)
    Библиотека кодирования : VirtualDubMod build 2550/release
    Видео
    Идентификатор : 0
    Формат : MPEG-4 Visual
    Профиль формата : Advanced Simple@L5
    Параметр BVOP формата : 2
    Параметр QPel формата : Нет
    Параметр GMC формата : Без точки перехода
    Параметр матрицы формата : Default (MPEG)
    Идентификатор кодека : XVID
    Идентификатор кодека/Подсказка : XviD
    Продолжительность : 44 м.
    Битрейт : 1800 Кбит/сек
    Ширина : 720 пикселей
    Высота : 448 пикселей
    Соотношение сторон : 16: 10
    Частота кадров : 25, 000 кадров/сек
    Цветовое пространство : YUV
    Субдискретизация насыщенности : 4: 2: 0
    Битовая глубина : 8 бит
    Тип развёртки : Прогрессивная
    Метод сжатия : С потерями
    Бит/(Пиксели*Кадры) : 0.223
    Размер потока : 571 Мбайт (93%)
    Библиотека кодирования : XviD 73
    Аудио
    Идентификатор : 1
    Формат : MPEG Audio
    Версия формата : Version 1
    Профиль формата : Layer 3
    Идентификатор кодека : 55
    Идентификатор кодека/Подсказка : MP3
    Продолжительность : 44 м.
    Вид битрейта : Постоянный
    Битрейт : 128 Кбит/сек
    Каналы : 2 канала
    Частота : 48, 0 КГц
    Метод сжатия : С потерями
    Размер потока : 40, 6 Мбайт (7%)
    Выравнивание : Соединение по промежуткам
    Продолжительность промежутка : 40 мс. (1, 00 видеокадр)
    Время предзагрузки промежутка : 504 мс.
    Библиотека кодирования : LAME3.99r
    Настройки программы : -m s -V 4 -q 2 -lowpass 17 -b 128

    Скриншоты для ознакомления



    Все одноименные релизы в Клубе
    Время раздачи: 24/7 (до появления первых 3-5 скачавших)


    Научное расследование Сергея Малозёмова. Еда живая и мертвая (31.12.2019) SATRip
    Рейтинг →
     (голосов: 1, оценка 3/5, голосовать можно 1 раз )

    Другие торренты по теме:

  • Научное расследование Сергея Малозёмова: ГМО. Еда раздора (2014.12.06) SATRip скачать через торрент бесплатно
  • Научное расследование Сергея Малозёмова: Ген пьянства (2014.12.13) SATRip
  • Научное расследование Сергея Малозёмова: Соль и сахар. Смерть по вкусу (2014.12.20) SATRip скачать через торрент бесплатно
  • Научное расследование Сергея Малозёмова: Технология бессмертия (2014.12.27) SATRip
  • Научное расследование Сергея Малозёмова: Холод (2013) SATRip
  • Научное расследование Сергея Малозёмова: Город-убийца (2014) SATRip
  • Научное расследование Сергея Малозёмова. Еда живая и мертвая: Рыба (2015.11.07) SATRip скачать через торрент бесплатно
  • Научное расследование Сергея Малозёмова. Еда живая и мертвая: Вода (2015.11.14) SATRip скачать через торрент бесплатно


    • Комментарии (0):

      Информация

      Информация

        Посетители, находящиеся в группе Гости, не могут оставлять комментарии в данной новости.

        ↓ Меню




        ↓ Опрос

        Вы добавили сайт в закладки?
        Да
        Нет


        Top 10 за месяц (Передачи)