.
Авторизация | Регистрация
Хочешь лучшие торренты? Добавь свой email!
Добавить

Торрент скачать бесплатно

  • support: webmaster@btracker.club
» » Собаки / Dogs (2018) WEB-DL [H.264 / 720p-LQ] (сезон 1, серии 1-6 из 6) торрент скачать бесплатно


    Собаки / Dogs (2018) WEB-DL [H.264 / 720p-LQ] (сезон 1, серии 1-6 из 6) торрент скачать бесплатно

    Опубликовал: fregat | Дата: 31-12-2018, 05:00 | .torrent скачали: 0

    Собаки / Dogs (2018) WEB-DL [H.264 / 720p-LQ] (сезон 1, серии 1-6 из 6)Производство: США, Disarming Films, Zipper Bros Films, Netflix
    Жанр: Документальный, кинология
    Режиссер: Эми Берг, Хайди Юинг, Ричард Ханкин
    Участники: Бэт, Карли, Кэролайн

    Описание

    Каждый из шести эпизодов сериала расскажет зрителю историю глубокой эмоциональной привязанности людей и их четвероногих питомцев. Например, главные герои первого эпизода — 11-летняя девочка, страдающая из-за серьезного заболевания, и ее сертифицированная собака-сиделка. Герой второго эпизода, Айхам, отправляется в охваченную войной Сирию, чтобы спасти своего пса Зевса и переправить его через границу. Другие эпизоды сняты в Италии, Японии, Коста-Рике и других странах.

    Релиз от: Творческое объединение Relax
    Продолжительность: 6 x ~ 00: 50: 17
    Качество видео: WEB-DL
    Перевод: Одноголосый закадровый, профессиональный (Relax)
    Субтитры: отсутствуют
    Видео: AVC/H.264, 1280x720, ~1560 Kbps
    Аудио: AAC, 2 ch, 128 Kbps

    Общее
    Уникальный идентификатор : 311197712236778875197316896805617983361 (0xEA1E7FCFA51F960BD437647C2024DF81)
    Полное имя : F: КИНОDogs.S01Dogs.S01E04.mkv
    Формат : Matroska
    Версия формата : Version 4
    Размер файла : 608 Мбайт
    Продолжительность : 50 м. 17 с.
    Режим общего битрейта : Переменный
    Общий поток : 1691 Кбит/сек
    Дата кодирования : UTC 2018-12-30 14: 33: 54
    Программа кодирования : mkvmerge v28.1.0 (\'Morning Child\') 64-bit
    Библиотека кодирования : libebml v1.3.6 + libmatroska v1.4.9
    Видео
    Идентификатор : 2
    Формат : AVC
    Формат/Информация : Advanced Video Codec
    Профиль формата : High@L4
    Настройки формата : CABAC/2 Ref Frames
    Параметр CABAC формата : Да
    Параметр RefFrames формата : 2 кадра
    Параметр GOP формата : M=2, N=15
    Идентификатор кодека : V_MPEG4/ISO/AVC
    Продолжительность : 50 м. 17 с.
    Вид битрейта : Переменный
    Битрейт : 1560 Кбит/сек
    Максимальный битрейт : 2000 Кбит/сек
    Ширина : 1280 пикселей
    Высота : 720 пикселей
    Соотношение сторон : 16: 9
    Режим частоты кадров : Постоянный
    Частота кадров : 29, 970 (30000/1001) кадров/сек
    Цветовое пространство : YUV
    Субдискретизация насыщенности : 4: 2: 0
    Битовая глубина : 8 бит
    Тип развёртки : Прогрессивная
    Бит/(Пиксели*Кадры) : 0.056
    Размер потока : 561 Мбайт (92%)
    Язык : English
    Default : Да
    Forced : Нет
    Аудио
    Идентификатор : 1
    Формат : AAC LC
    Формат/Информация : Advanced Audio Codec Low Complexity
    Идентификатор кодека : A_AAC-2
    Продолжительность : 50 м. 17 с.
    Битрейт : 128 Кбит/сек
    Каналы : 2 канала
    Channel layout : L R
    Частота : 48, 0 КГц
    Частота кадров : 46, 875 кадров/сек (1024 SPF)
    Метод сжатия : С потерями
    Размер потока : 46, 0 Мбайт (8%)
    Язык : English
    Default : Да
    Forced : Нет

    Скриншоты для ознакомления




    Все одноименные релизы в Клубе
    Время раздачи: с 18: 00 до 23: 00 (до появления первых 3-5 скачавших)


    Собаки/Dogs (2018) WEB-DL [H.264/720p-LQ] (сезон 1, серии 1-6 из 6)
    Рейтинг →
     (голосов: 1, оценка 5/5, голосовать можно 1 раз )

    Другие торренты по теме:

  • Wallpapers - Собаки / Dogs [JPEG]
  • Собаки моих бывших / My Boyfriends Dogs (2014) WEB-DLRip
  • Не все собаки кусачие / Some Dogs Bite (2010) HDRip
  • NG. Жизнь до рождения: Собаки / In The Womb. Dogs (2009) HDTV [H.264 / 1080i-LQ]
  • NGW: История одной гиеновой собаки / A Wild Dogs Tale (2012) HDTV [H.264 / 1080i-LQ]
  • Кошки и собаки: кто лучше / Cats v Dogs: Which Is Best (2016) HDTVRip (2 серии из 2)


    • Комментарии (0):

      Информация

      Информация

        Посетители, находящиеся в группе Гости, не могут оставлять комментарии в данной новости.

        ↓ Меню




        ↓ Опрос

        Вы добавили сайт в закладки?
        Да
        Нет


        Top 10 за месяц (Передачи)