.
Авторизация | Регистрация

Торрент скачать бесплатно

  • support: webmaster@btracker.club
» » Хоккей. Молодёжный Чемпионат мира 2019. Предварительный раунд. Группа A. Швейцария — Канада (27.12.2018) HDTVRip [H.264 / 720p-LQ] торрент скачать бесплатно


    Хоккей. Молодёжный Чемпионат мира 2019. Предварительный раунд. Группа A. Швейцария — Канада (27.12.2018) HDTVRip [H.264 / 720p-LQ] торрент скачать бесплатно

    Дата: 30-12-2018, 16:13 | .torrent скачали: 0

    Хоккей. Молодёжный Чемпионат мира 2019. Предварительный раунд. Группа A. Швейцария — Канада (27.12.2018) HDTVRip [H.264 / 720p-LQ]Телекомпания: Матч ТВ HD
    Жанр: Спорт
    Комментаторы: Киррил Корнилов, Александр Ткачев

    Описание
    28 декабря 2018, пятница. 04: 00 МСК
    43-й Чемпионат мира по хоккею с шайбой среди молодёжных команд (U20) 2019 года
    Предварительный раунд. Группа A.
    Швейцария — Канада
    Стадион: Роджерс-Арена (Ванкувер, Канада), 17102 зрителя (90 % при вместимости 18910)
    Главные судьи: Эндрю Брюггеман (США); Петер Стано (Словакия)
    Линейные судьи: Дмитрий Голяк (Белорусь), Эмиль Юлетуйнен (Швеция)
    Релиз от: REXNN52
    Продолжительность: 01: 48: 58
    Качество видео: HDTVRip
    Язык озвучки: Русский
    Субтитры: отсутствуют
    Видео: AVC/H.264, 1280x720 (16: 9), ~3429 Kbps
    Аудио: AC3, 2 ch, 48 kHz, 192 Kbps

    Общее
    Полное имя : F: SPORTХоккей2019 World Junior Ice Hockey ChampionshipsМолодежный чемпионат мира 2019 (U-20) Ванкувер, Канада Группа A Швейцария - Канада.mkv
    Формат : Matroska
    Версия формата : Version 2
    Размер файла : 2, 81 Гбайт
    Продолжительность : 1 ч. 48 м.
    Общий поток : 3695 Кбит/сек
    Программа кодирования : libmatroska 1.3.0
    Библиотека кодирования : SolveigMM Matroska Muxer Version 1.0.1208.20
    Видео
    Идентификатор : 1
    Формат : AVC
    Формат/Информация : Advanced Video Codec
    Профиль формата : High@L4.1
    Настройки формата : CABAC/4 Ref Frames
    Параметр CABAC формата : Да
    Параметр RefFrames формата : 4 кадра
    Идентификатор кодека : V_MPEG4/ISO/AVC
    Продолжительность : 1 ч. 48 м.
    Битрейт : 3429 Кбит/сек
    Номинальный битрейт : 4000 Кбит/сек
    Ширина : 1280 пикселей
    Высота : 720 пикселей
    Соотношение сторон : 16: 9
    Режим частоты кадров : Постоянный
    Частота кадров : 25, 000 кадров/сек
    Цветовое пространство : YUV
    Субдискретизация насыщенности : 4: 2: 0
    Битовая глубина : 8 бит
    Тип развёртки : Прогрессивная
    Бит/(Пиксели*Кадры) : 0.149
    Размер потока : 2, 61 Гбайт (93%)
    Библиотека кодирования : x264 core 157 r2935M 545de2f
    Настройки программы : cabac=1/ref=4/deblock=1: -2: -2/analyse=0x3: 0x133/me=umh/subme=7/psy=1/psy_rd=1.00: 0.20/mixed_ref=1/me_range=16/chroma_me=1/trellis=1/8x8dct=1/cqm=0/deadzone=21, 11/fast_pskip=0/chroma_qp_offset=-3/threads=9/lookahead_threads=1/sliced_threads=0/nr=0/decimate=1/interlaced=0/bluray_compat=0/constrained_intra=0/bframes=3/b_pyramid=2/b_adapt=2/b_bias=0/direct=3/weightb=1/open_gop=0/weightp=2/keyint=250/keyint_min=25/scenecut=40/intra_refresh=0/rc_lookahead=40/rc=cbr/mbtree=1/bitrate=4000/ratetol=1.0/qcomp=0.60/qpmin=0/qpmax=69/qpstep=4/vbv_maxrate=4000/vbv_bufsize=2857/nal_hrd=none/filler=0/ip_ratio=1.40/aq=1: 1.00
    Язык : English
    Default : Нет
    Forced : Нет
    Аудио
    Идентификатор : 2
    Формат : AC-3
    Формат/Информация : Audio Coding 3
    Идентификатор кодека : A_AC3
    Продолжительность : 1 ч. 48 м.
    Вид битрейта : Постоянный
    Битрейт : 192 Кбит/сек
    Каналы : 2 канала
    Расположение каналов : Front: L R
    Частота : 48, 0 КГц
    Частота кадров : 31, 250 кадров/сек (1536 SPF)
    Битовая глубина : 16 бит
    Метод сжатия : С потерями
    Размер потока : 150 Мбайт (5%)
    Язык : English
    ServiceKind/String : Complete Main
    Default : Нет
    Forced : Нет

    Скриншоты для ознакомления



    Все одноименные релизы в Клубе
    Время раздачи: 24/7 (до 1 месяца)


    Хоккей. Молодёжный Чемпионат мира 2019. Предварительный раунд. Группа A. Швейцария — Канада (27.12.2018) HDTVRip [H.264/720p-LQ]
    Рейтинг →
     (голосов: 1, оценка 3/5, голосовать можно 1 раз )

    Другие торренты по теме:

  • Хоккей. Молодёжный Чемпионат мира. 1 / 4 финала. Словакия - Швеция. 02.01.2016 HDTVRip [H.264 / 720p-LQ] скачать через торрент бесплатно
  • Хоккей. Молодёжный Чемпионат мира. 1 / 4 финала. Россия-Дания. 02.01.2016 HDTVRip [H.264 / 720p-LQ] скачать через торрент бесплатно
  • Хоккей. Молодёжный Чемпионат мира. 1 / 4 финала. Чехия - США. 02.01.2016 HDTVRip [H.264 / 720p-LQ] скачать через торрент бесплатно
  • Хоккей. Молодёжный Чемпионат мира. 1 / 4 финала. Канада - Финляндия. 02.01.2016 HDTVRip [H.264 / 720p-LQ] скачать через торрент бесплатно
  • Хоккей. Молодёжный Чемпионат мира 2015-2016. 1 / 2 финала. США - Россия. 04.01.2016 HDTVRip [H.264 / 720p-LQ] скачать через торрент бесплатно
  • Хоккей. Молодёжный Чемпионат мира 2015-2016. 1 / 2 финала. Финляндия - Швеция. 04.01.2016 HDTVRip [H.264 / 720p-LQ] скачать через торрент бесплатно
  • Хоккей. Молодёжный Чемпионат мира 2015-2016. Матч за 3 место. США - Швеция. 05.01.2016 HDTVRip [H.264 / 720p-LQ] скачать через торрент бесплатно
  • Хоккей. Молодёжный Чемпионат мира 2015-2016. Финал. Россия - Финляндия. (05.01.2016) HDTVRip [H.264 / 720p-LQ] скачать через торрент бесплатно


    • Комментарии (0):

      Информация

      Информация

        Посетители, находящиеся в группе Гости, не могут оставлять комментарии в данной новости.

        ↓ Меню




        ↓ Опрос

        Вы добавили сайт в закладки?
        Да
        Нет


        Top 10 за месяц (Передачи)