.
Авторизация | Регистрация
Хочешь лучшие торренты? Добавь свой email!
Добавить

Торрент скачать бесплатно

  • support: webmaster@btracker.club
» » Камеди Клаб / Комеди Клаб / Comedy Club (2018.12.28) WEB-DLRip [H.264 / 720p-LQ] торрент скачать бесплатно


    Камеди Клаб / Комеди Клаб / Comedy Club (2018.12.28) WEB-DLRip [H.264 / 720p-LQ] торрент скачать бесплатно

    Опубликовал: fregat | Дата: 30-12-2018, 16:13 | .torrent скачали: 0

    Камеди Клаб / Комеди Клаб / Comedy Club (2018.12.28) WEB-DLRip [H.264 / 720p-LQ]Телекомпания: ТНТ
    Жанр: Юмор
    Участники: Гарик Мартиросян, Вадим Галыгин, Павел Воля, Тимур Батрутдинов, Александр Ревва, Гавр, Олег Верещагин, Дмитрий Сорокин, Зураб Матуa, Андрей Аверин, Алексей Лихницкий, Роман Юнусов, Антон Лирник, Андрей Молочный, Александр Незлобин, Дмитрий Хрусталёв, Васильев Виктор, Сергей Бессмертный, Игорь Меерсон, Семён Слепаков, Михаил Галустян и др.

    Описание

    Comedy Club был создан в 2005 году командой КВН Новые армяне, в состав которой входили Артур Джанибекян, Артак Гаспарян, Артур Тумасян, Арташес Саркисян, Гарик Мартиросян и другие. Его идея была задумана ещё в 2001 году, когда Арташес Саркисян, побывав в США, увидел местный Comedy Club. Временами стали появляться новые участники Comedy Club, в основном из КВН. 23 апреля 2005 года Comedy Club впервые вышел в эфир телеканала ТНТ. Рейтинги программы стали бить все рекорды и это приносило программе большие доходы, на которые они стали делать другие проекты. Впоследствии они создали свою продюсерскую компанию Comedy Club Production. 15 апреля 2007 года на ТНТ был показан сотый выпуск программы. Регулярно выходят новые выпуски и другие проекты - например спецвыпуски на Первом канале, юмористические фестивали и продюсирование участниками Comedy Club проекты других телепередач. 23 апреля 2010 года Comedy Club вышло с новой музыкой и обновлённым оформлением.
    Релиз от: Алехаndr
    Продолжительность: 00: 46: 46
    Качество видео: WEB-DLRip
    Субтитры: Отсутствуют
    Видео: AVC/H.264, 1280x720 (16: 9), ~2990 Kbps
    Аудио: AC3, 2 ch, 192 Kbps

    Общее
    Уникальный идентификатор : 38224802250977145532279936572845890137 (0x1CC1D441B089A05884AD9299E58E9A59)
    Полное имя : G: Камеди Клаб (28.12.2018).by.Алехаndr.mkv
    Формат : Matroska
    Версия формата : Version 4
    Размер файла : 1, 04 Гбайт
    Продолжительность : 46 м. 46 с.
    Общий поток : 3183 Кбит/сек
    Дата кодирования : UTC 2018-12-29 13: 48: 11
    Программа кодирования : mkvmerge v29.0.0 (\'Like It Or Not\') 32-bit
    Библиотека кодирования : libebml v1.3.6 + libmatroska v1.4.9/Lavf57.71.100
    Видео
    Идентификатор : 1
    Формат : AVC
    Формат/Информация : Advanced Video Codec
    Профиль формата : High@L3.1
    Настройки формата : CABAC/1 Ref Frames
    Параметр CABAC формата : Да
    Параметр RefFrames формата : 1 кадр
    Параметр GOP формата : M=1, N=12
    Идентификатор кодека : V_MPEG4/ISO/AVC
    Продолжительность : 46 м. 46 с.
    Битрейт : 2988 Кбит/сек
    Ширина : 1280 пикселей
    Высота : 720 пикселей
    Соотношение сторон : 16: 9
    Режим частоты кадров : Постоянный
    Частота кадров : 25, 000 кадров/сек
    Стандарт вещания : Component
    Цветовое пространство : YUV
    Субдискретизация насыщенности : 4: 2: 0
    Битовая глубина : 8 бит
    Тип развёртки : Прогрессивная
    Бит/(Пиксели*Кадры) : 0.130
    Размер потока : 1000 Мбайт (94%)
    Default : Да
    Forced : Нет
    Цветовой диапазон : Limited
    Аудио
    Идентификатор : 2
    Формат : AC-3
    Формат/Информация : Audio Coding 3
    Коммерческое название : Dolby Digital
    Идентификатор кодека : A_AC3
    Продолжительность : 46 м. 46 с.
    Вид битрейта : Постоянный
    Битрейт : 192 Кбит/сек
    Каналы : 2 канала
    Channel layout : L R
    Частота : 48, 0 КГц
    Частота кадров : 31, 250 кадров/сек (1536 SPF)
    Битовая глубина : 16 бит
    Метод сжатия : С потерями
    Размер потока : 64, 2 Мбайт (6%)
    ServiceKind/String : Complete Main
    Default : Да
    Forced : Нет

    Скриншоты для ознакомления



    Все одноименные релизы в Клубе
    Время раздачи: 24/7 (круглосуточно) (до появления первых 3-5 скачавших)


    Камеди Клаб/Комеди Клаб/Comedy Club (2018.12.28) WEB-DLRip [H.264/720p-LQ]
    Рейтинг →
     (голосов: 1, оценка 4/5, голосовать можно 1 раз )

    Другие торренты по теме:

  • Новый Камеди Клаб в Юрмале / Комеди Клаб / Comedy Club / Выпуск №15 (26.09.2014) WEB-DLRip
  • Камеди Клаб / Комеди Клаб / Comedy Club / Exclusive №45 (27.09.2014) WEB-DL [H.264 / 720p] [hand made 50fps]
  • Новый Камеди Клаб в Юрмале / Комеди Клаб / Comedy Cub. Выпуски 10-15 + Открытие фестиваля в Юрмале и интервью резидентов (2014.09.26) WEB-DL [H.264 / 720p-LQ] [Обновляемая]
  • Новый Камеди Клаб в Юрмале / Комеди Клаб / Comedy Club / Выпуски №10-15 (26.09.2014) SATRip [Обновляемая]
  • Камеди Клаб / Комеди Клаб / Comedy Club (10.10.2014) SATRip скачать через торрент бесплатно
  • Камеди Клаб / Комеди Клаб / Comedy Club / Спецвыпуск Лепс (10.10.2014) WEB-DL [H.264 / 720p] [hand made 50fps] скачать через торрент бесплатно
  • Камеди Клаб / Комеди Клаб / Comedy Club / Спецвыпуск Лепс (10.10.2014) WEBRip скачать через торрент бесплатно
  • Камеди Клаб / Комеди Клаб / Comedy Club / Exclusive №47 (11.10.2014) WEBRip скачать через торрент бесплатно


    • Комментарии (0):

      Информация

      Информация

        Посетители, находящиеся в группе Гости, не могут оставлять комментарии в данной новости.

        ↓ Меню




        ↓ Опрос

        Вы добавили сайт в закладки?
        Да
        Нет


        Top 10 за месяц (Передачи)