.
Авторизация | Регистрация

Торрент скачать бесплатно

  • support: webmaster@btracker.club
» » Они никогда не станут старше / They Shall Not Grow Old (2018) BDRip [H.264 / 1080p] [EN / RU, EN Sub] торрент скачать бесплатно


    Они никогда не станут старше / They Shall Not Grow Old (2018) BDRip [H.264 / 1080p] [EN / RU, EN Sub] торрент скачать бесплатно

    Дата: 30-12-2018, 16:13 | .torrent скачали: 0

    Они никогда не станут старше / They Shall Not Grow Old (2018) BDRip [H.264 / 1080p] [EN / RU, EN Sub]Производство: Великобритания, Новая Зеландия/House Productions, Trustees of the Imperial War Museum (London), WingNut Films, BBC
    Жанр: Документальный, История, Военный, Хроника
    Режиссер: Питер Джексон

    Описание

    Они были солдатами. И молодыми. Им не повезло: их лучшие годы сожрала Первая мировая — первая глобальная катастрофа ХХ века, у западных историков получившая название Великая война. Но их лица и улыбки остались в кадрах хроники.

    Продолжительность: 01: 39: 18
    Качество видео: BDRip
    Перевод: Отсутствует
    Язык озвучки: Английский
    Субтитры: Русские, английские
    Видео: AVC/H.264, 1920x1040, ~9520 Kbps
    Аудио: DTS, 6 ch, 1509 Kbps

    Общее
    Уникальный идентификатор : 132654851559852306904225352889124680222 (0x63CC6524891197087BE9038699C2721E)
    Полное имя : D: They.Shall.Not.Grow.Old.2018.1080p.BluRay.x264They.shall.not.grow.old.mkv
    Формат : Matroska
    Версия формата : Version 4
    Размер файла : 7, 65 Гбайт
    Продолжительность : 1 ч. 39 м.
    Общий поток : 11, 0 Мбит/сек
    Дата кодирования : UTC 2018-12-28 19: 54: 31
    Программа кодирования : mkvmerge v29.0.0 (\'Like It Or Not\') 64-bit
    Библиотека кодирования : libebml v1.3.6 + libmatroska v1.4.9
    Видео
    Идентификатор : 1
    Формат : AVC
    Формат/Информация : Advanced Video Codec
    Профиль формата : High@L4.1
    Настройки формата : CABAC/4 Ref Frames
    Параметр CABAC формата : Да
    Параметр RefFrames формата : 4 кадра
    Идентификатор кодека : V_MPEG4/ISO/AVC
    Продолжительность : 1 ч. 39 м.
    Битрейт : 9520 Кбит/сек
    Ширина : 1920 пикселей
    Высота : 1040 пикселей
    Соотношение сторон : 1, 85: 1
    Режим частоты кадров : Постоянный
    Частота кадров : 23, 976 (24000/1001) кадра/сек
    Цветовое пространство : YUV
    Субдискретизация насыщенности : 4: 2: 0
    Битовая глубина : 8 бит
    Тип развёртки : Прогрессивная
    Бит/(Пиксели*Кадры) : 0.199
    Размер потока : 6, 60 Гбайт (86%)
    Библиотека кодирования : x264 core 157 r2932 303c484
    Настройки программы : cabac=1/ref=4/deblock=1: -3: -3/analyse=0x3: 0x133/me=umh/subme=9/psy=1/psy_rd=1.00: 0.00/mixed_ref=1/me_range=24/chroma_me=1/trellis=1/8x8dct=1/cqm=0/deadzone=21, 11/fast_pskip=0/chroma_qp_offset=-2/threads=24/lookahead_threads=4/sliced_threads=0/nr=0/decimate=1/interlaced=0/bluray_compat=0/constrained_intra=0/bframes=8/b_pyramid=2/b_adapt=2/b_bias=0/direct=3/weightb=1/open_gop=0/weightp=2/keyint=250/keyint_min=23/scenecut=40/intra_refresh=0/rc_lookahead=60/rc=2pass/mbtree=1/bitrate=9520/ratetol=1.0/qcomp=0.60/qpmin=0/qpmax=69/qpstep=4/cplxblur=20.0/qblur=0.5/vbv_maxrate=62500/vbv_bufsize=78125/nal_hrd=none/filler=0/ip_ratio=1.40/aq=1: 1.00
    Default : Да
    Forced : Нет
    Аудио
    Идентификатор : 2
    Формат : DTS
    Формат/Информация : Digital Theater Systems
    Идентификатор кодека : A_DTS
    Продолжительность : 1 ч. 39 м.
    Вид битрейта : Постоянный
    Битрейт : 1509 Кбит/сек
    Каналы : 6 каналов
    Channel layout : C L R Ls Rs LFE
    Частота : 48, 0 КГц
    Частота кадров : 93, 750 кадра/сек (512 SPF)
    Битовая глубина : 24 бит
    Метод сжатия : С потерями
    Размер потока : 1, 05 Гбайт (14%)
    Язык : English
    Default : Да
    Forced : Нет
    Текст #1
    Идентификатор : 3
    Формат : UTF-8
    Идентификатор кодека : S_TEXT/UTF8
    Идентификатор кодека/Информация : UTF-8 Plain Text
    Продолжительность : 1 ч. 31 м.
    Битрейт : 118 бит/сек
    ElementCount : 1813
    Размер потока : 79, 0 Кбайт (0%)
    Язык : English
    Default : Нет
    Forced : Нет
    Текст #2
    Идентификатор : 4
    Формат : UTF-8
    Идентификатор кодека : S_TEXT/UTF8
    Идентификатор кодека/Информация : UTF-8 Plain Text
    Продолжительность : 1 ч. 38 м.
    Битрейт : 190 бит/сек
    ElementCount : 1926
    Размер потока : 138 Кбайт (0%)
    Язык : Russian
    Default : Нет
    Forced : Нет
    Меню
    00: 00: 00.000 : en: 00: 00: 00.000
    00: 09: 15.680 : en: 00: 09: 15.680
    00: 16: 16.309 : en: 00: 16: 16.309
    00: 23: 59.563 : en: 00: 23: 59.563
    00: 36: 45.870 : en: 00: 36: 45.870
    00: 44: 58.905 : en: 00: 44: 58.905
    00: 51: 56.030 : en: 00: 51: 56.030
    01: 01: 07.372 : en: 01: 01: 07.372
    01: 08: 36.029 : en: 01: 08: 36.029
    01: 15: 37.867 : en: 01: 15: 37.867
    01: 23: 25.375 : en: 01: 23: 25.375
    01: 32: 04.352 : en: 01: 32: 04.352

    Скриншоты для ознакомления



    Все одноименные релизы в Клубе
    Время раздачи: 24/7 (до появления первых 3-5 скачавших)


    Они никогда не станут старше/They Shall Not Grow Old (2018) BDRip [H.264/1080p] [EN/RU, EN Sub]
    Рейтинг →
     (голосов: 1, оценка 4/5, голосовать можно 1 раз )

    Другие торренты по теме:

  • Андреас Бур | Потребитель 3.0. Продажи уже никогда не станут прежними (2015) [FB2, DOCX]
  • Они никогда не станут старше / They Shall Not Grow Old (2018) BDRemux [H.264 / 1080p] [MVO]
  • Они никогда не станут старше / They Shall Not Grow Old (2018) BDRip [MVO]


    • Комментарии (0):

      Информация

      Информация

        Посетители, находящиеся в группе Гости, не могут оставлять комментарии в данной новости.

        ↓ Меню




        ↓ Опрос

        Вы добавили сайт в закладки?
        Да
        Нет


        Top 10 за месяц (Передачи)