.
Авторизация | Регистрация

Торрент скачать бесплатно

  • support: webmaster@btracker.club
» » Извержение Килауэа / Kilauea Eruption (2018) WEBRip [H.264 / 2160p] [4K, HDR] торрент скачать бесплатно


    Извержение Килауэа / Kilauea Eruption (2018) WEBRip [H.264 / 2160p] [4K, HDR] торрент скачать бесплатно

    Дата: 30-12-2018, 16:13 | .torrent скачали: 0

    Извержение Килауэа / Kilauea Eruption (2018) WEBRip [H.264 / 2160p] [4K, HDR]Производство: США
    Жанр: Документальный, видовой
    Режиссер: Эндрю Ричард Хара

    Описание

    Килауэа — самый активный вулкан на Гавайях, он не засыпал с 1983 года. Однако в начале мая 2018-го его извержение стало чрезвычайно бурным — потоки лавы высушили озеро и прибавили несколько километров суши к Большому острову.
    Продолжительность: 00: 05: 29
    Качество видео: WEBRip
    Перевод: Не требуется (нет диалогов и комментариев)
    Субтитры: отсутствуют
    Видео: AVC/H.264, 4096x2160, ~23, 6 Mbps
    Аудио: AAC, 2 ch, 137 Kbps

    Общее
    Уникальный идентификатор : 172683765177748258852225803148999037821 (0x81E9AEF50A9CFEA395C28DF60F50937D)
    Полное имя : F: КИНОИЗВЕРЖЕНИЕ КИЛАУЭА.mkv
    Формат : Matroska
    Версия формата : Version 4
    Размер файла : 929 Мбайт
    Продолжительность : 5 м. 28 с.
    Общий поток : 23, 7 Мбит/сек
    Дата кодирования : UTC 2018-12-30 00: 53: 00
    Программа кодирования : mkvmerge v28.1.0 (\'Morning Child\') 64-bit
    Библиотека кодирования : libebml v1.3.6 + libmatroska v1.4.9
    Видео
    Идентификатор : 1
    Формат : AVC
    Формат/Информация : Advanced Video Codec
    Профиль формата : High@L5.2
    Настройки формата : CABAC/5 Ref Frames
    Параметр CABAC формата : Да
    Параметр RefFrames формата : 5 кадров
    Идентификатор кодека : V_MPEG4/ISO/AVC
    Продолжительность : 5 м. 28 с.
    Битрейт : 23, 6 Мбит/сек
    Ширина : 4096 пикселей
    Высота : 2160 пикселей
    Соотношение сторон : 1, 896
    Режим частоты кадров : Постоянный
    Частота кадров : 23, 976 (24000/1001) кадра/сек
    Цветовое пространство : YUV
    Субдискретизация насыщенности : 4: 2: 0
    Битовая глубина : 8 бит
    Тип развёртки : Прогрессивная
    Бит/(Пиксели*Кадры) : 0.111
    Размер потока : 924 Мбайт (99%)
    Библиотека кодирования : x264 core 157 r10 545de2f
    Настройки программы : cabac=1/ref=5/deblock=1: 0: 0/analyse=0x3: 0x113/me=hex/subme=8/psy=1/psy_rd=1.00: 0.00/mixed_ref=1/me_range=16/chroma_me=1/trellis=2/8x8dct=1/cqm=0/deadzone=21, 11/fast_pskip=1/chroma_qp_offset=-2/threads=48/lookahead_threads=8/sliced_threads=0/nr=0/decimate=1/interlaced=0/bluray_compat=0/stitchable=1/constrained_intra=0/bframes=3/b_pyramid=2/b_adapt=2/b_bias=0/direct=3/weightb=1/open_gop=0/weightp=2/keyint=infinite/keyint_min=23/scenecut=40/intra_refresh=0/rc_lookahead=50/rc=crf/mbtree=1/crf=20.0/qcomp=0.60/qpmin=5/qpmax=69/qpstep=4/vbv_maxrate=24200/vbv_bufsize=66000/crf_max=0.0/nal_hrd=none/filler=0/ip_ratio=1.40/aq=1: 1.00
    Default : Да
    Forced : Нет
    Цветовой диапазон : Limited
    Основные цвета : BT.709
    Характеристики трансфера : BT.709
    Коэффициенты матрицы : BT.709
    Аудио
    Идентификатор : 2
    Формат : AAC LC
    Формат/Информация : Advanced Audio Codec Low Complexity
    Идентификатор кодека : A_AAC-2
    Продолжительность : 5 м. 28 с.
    Битрейт : 137 Кбит/сек
    Каналы : 2 канала
    Channel layout : L R
    Частота : 48, 0 КГц
    Частота кадров : 46, 875 кадров/сек (1024 SPF)
    Метод сжатия : С потерями
    Размер потока : 5, 37 Мбайт (1%)
    Default : Да
    Forced : Нет

    Скриншоты для ознакомления



    Все одноименные релизы в Клубе
    Время раздачи: с 18: 00 до 23: 00 (до появления первых 3-5 скачавших)


    Извержение Килауэа/Kilauea Eruption (2018) WEBRip [H.264/2160p] [4K, HDR]
    Рейтинг →
     (голосов: 1, оценка 3/5, голосовать можно 1 раз )

    Другие торренты по теме:

  • Извержение: Лос-Анджелес / Destruction Los Angeles (2017) WEB-DL [H.264 / 1080p] [MVO]
  • Извержение: Лос-Анджелес / Destruction Los Angeles (2017) WEB-DLRip [MVO]


    • Комментарии (0):

      Информация

      Информация

        Посетители, находящиеся в группе Гости, не могут оставлять комментарии в данной новости.

        ↓ Меню




        ↓ Опрос

        Вы добавили сайт в закладки?
        Да
        Нет


        Top 10 за месяц (Передачи)