.
Авторизация | Регистрация
Хочешь лучшие торренты? Добавь свой email!
Добавить

Торрент скачать бесплатно

  • support: webmaster@btracker.club
» » Чудо техники с Сергеем Малозёмовым (30.12.2018) торрент скачать бесплатно


    Чудо техники с Сергеем Малозёмовым (30.12.2018) торрент скачать бесплатно

    Опубликовал: fregat | Дата: 30-12-2018, 16:13 | .torrent скачали: 2

    Чудо техники с Сергеем Малозёмовым (30.12.2018)Телекомпания: НТВ
    Жанр: Телепередача

    Описание

    Чудо техники и Сергей Малозёмов в новом выпуске расскажут, как в предновогодней суете найти действительно нужный подарок: команда проекта выберет полезные устройства, которые приятно дарить и получать. К тоже же, зрители узнают, как обычная народная забава - катание с горок - превратилась в один из самых скоростных видов спорта. А также в откровенном интервью знаменитая бобслеистка Ирина Скворцова расскажет, как сложилась её жизнь спустя 10 лет после страшной аварии. Сергей Малозёмов объяснит, от чего петарда может взорваться в руках, насколько горячи бенгальские огни и как сделать салют безопасным. Кроме того, в новом выпуске зрители узнают о самых необычных способах встречи Нового года.
    Релиз от: -=FOX=-
    Продолжительность: 00: 40: 48
    Качество видео: SATRip
    Видео: XviD, 720x448 (1.607), 25.000 fps, 1800 Kbps (0.223 bit/pixel)
    Аудио: MP3, 48.0 KHz, 2 ch, 128 Kbps, CBR

    Общее
    Полное имя : Chudo.tehniki.(2018.12.30).SATRip.avi
    Формат : AVI
    Формат/Информация : Audio Video Interleave
    Размер файла : 566 Мбайт
    Продолжительность : 40 м.
    Общий поток : 1937 Кбит/сек
    Программа кодирования : VirtualDubMod 1.5.10.3 |www.virtualdub-fr.org|| (build 2550/release)
    Библиотека кодирования : VirtualDubMod build 2550/release
    Видео
    Идентификатор : 0
    Формат : MPEG-4 Visual
    Профиль формата : Advanced Simple@L5
    Параметр BVOP формата : 2
    Параметр QPel формата : Нет
    Параметр GMC формата : Без точки перехода
    Параметр матрицы формата : Default (MPEG)
    Идентификатор кодека : XVID
    Идентификатор кодека/Подсказка : XviD
    Продолжительность : 40 м.
    Битрейт : 1800 Кбит/сек
    Ширина : 720 пикселей
    Высота : 448 пикселей
    Соотношение сторон : 16: 10
    Частота кадров : 25, 000 кадров/сек
    Цветовое пространство : YUV
    Субдискретизация насыщенности : 4: 2: 0
    Битовая глубина : 8 бит
    Тип развёртки : Прогрессивная
    Метод сжатия : С потерями
    Бит/(Пиксели*Кадры) : 0.223
    Размер потока : 525 Мбайт (93%)
    Библиотека кодирования : XviD 73
    Аудио
    Идентификатор : 1
    Формат : MPEG Audio
    Версия формата : Version 1
    Профиль формата : Layer 3
    Идентификатор кодека : 55
    Идентификатор кодека/Подсказка : MP3
    Продолжительность : 40 м.
    Вид битрейта : Постоянный
    Битрейт : 128 Кбит/сек
    Каналы : 2 канала
    Частота : 48, 0 КГц
    Метод сжатия : С потерями
    Размер потока : 37, 4 Мбайт (7%)
    Выравнивание : Соединение по промежуткам
    Продолжительность промежутка : 40 мс. (1, 00 видеокадр)
    Время предзагрузки промежутка : 504 мс.
    Библиотека кодирования : LAME3.99r
    Настройки программы : -m s -V 4 -q 2 -lowpass 17 -b 128

    Скриншоты для ознакомления



    Все одноименные релизы в Клубе
    Время раздачи: 24/7 (до появления первых 3-5 скачавших)


    Чудо техники с Сергеем Малозёмовым (30.12.2018)
    Рейтинг →
     (голосов: 1, оценка 5/5, голосовать можно 1 раз )

    Другие торренты по теме:

  • Чудо техники (2014.09.28) SATRip
  • Чудо техники (2014.10.05) SATRip скачать через торрент бесплатно
  • Чудо техники (2014.10.12) SATRip
  • Чудо техники (2014.10.19) SATRip скачать через торрент бесплатно
  • Чудо техники (2014.10.26) SATRip скачать через торрент бесплатно
  • Чудо техники (2014.10.26) SATRip скачать через торрент бесплатно
  • Чудо техники (2014.11.02) SATRip скачать через торрент бесплатно
  • Чудо техники (2014.11.09) SATRip скачать через торрент бесплатно


    • Комментарии (0):

      Информация

      Информация

        Посетители, находящиеся в группе Гости, не могут оставлять комментарии в данной новости.

        ↓ Меню




        ↓ Опрос

        Вы добавили сайт в закладки?
        Да
        Нет


        Top 10 за месяц (Передачи)