.
Авторизация | Регистрация

Торрент скачать бесплатно

  • support: webmaster@btracker.club
» » Первые цивилизации / First Civilizations (2018) HDTVRip [H.264 / 1080p-LQ] (Сезон 1, серии 1-4 из 4) торрент скачать бесплатно


    Первые цивилизации / First Civilizations (2018) HDTVRip [H.264 / 1080p-LQ] (Сезон 1, серии 1-4 из 4) торрент скачать бесплатно

    Дата: 30-12-2018, 16:13 | .torrent скачали: 0

    Первые цивилизации / First Civilizations (2018) HDTVRip [H.264 / 1080p-LQ] (Сезон 1, серии 1-4 из 4)Производство: США, Wall to Wall Media, PBS
    Жанр: Документальный, история, исследования
    Режиссер: Том Цебала
    Участники: Керри Шейл

    Описание

    Прожив 99% времени на Земле в качестве кочующих племён, почему люди стали на путь цивилизации? Как они создавали деревни, города и планировали современное мироустройство?
    Первые цивилизации определяют четыре краеугольных камня - войну, религию, города и торговлю - и исследуют каждый в контексте своего местоположения, от Мексики, Гватемалы, Ирака, Турции, Египта, Индии и Пакистана, до Омана, Марокко, Франции, Германия, Япония, Великобритания и США.

    Релиз от: рип Zakol
    Продолжительность: серии x ~00: 54: 00
    Качество видео: HDTVRip
    Перевод: Одноголосый закадровый, профессиональный (SDI Media)
    Субтитры: отсутствуют
    Видео: AVC/H.264, 1920x1080, ~4000 Kbps
    Аудио: AAC, 2 ch, 192 Kbps (читает: Владимир Рыбальченко)

    Общее
    Уникальный идентификатор : 78988051604471485282306619900280702632 (0x3B6C8B9E3EDCE23722DB9EFB3D9406A8)
    Полное имя : F: КИНОПервые цивилизации 1080 (2018)3 Первые цивилизации.mkv
    Формат : Matroska
    Версия формата : Version 4
    Размер файла : 1, 58 Гбайт
    Продолжительность : 53 м. 40 с.
    Режим общего битрейта : Переменный
    Общий поток : 4227 Кбит/сек
    Дата кодирования : UTC 2018-12-28 03: 36: 09
    Программа кодирования : mkvmerge v28.1.0 (\'Morning Child\') 64-bit
    Библиотека кодирования : libebml v1.3.6 + libmatroska v1.4.9
    Видео
    Идентификатор : 1
    Формат : AVC
    Формат/Информация : Advanced Video Codec
    Профиль формата : High@L4
    Настройки формата : CABAC/4 Ref Frames
    Параметр CABAC формата : Да
    Параметр RefFrames формата : 4 кадра
    Идентификатор кодека : V_MPEG4/ISO/AVC
    Продолжительность : 53 м. 40 с.
    Вид битрейта : Переменный
    Битрейт : 4035 Кбит/сек
    Максимальный битрейт : 4500 Кбит/сек
    Ширина : 1920 пикселей
    Высота : 1080 пикселей
    Соотношение сторон : 16: 9
    Режим частоты кадров : Постоянный
    Частота кадров : 25, 000 кадров/сек
    Цветовое пространство : YUV
    Субдискретизация насыщенности : 4: 2: 0
    Битовая глубина : 8 бит
    Тип развёртки : Прогрессивная
    Бит/(Пиксели*Кадры) : 0.078
    Размер потока : 1, 51 Гбайт (95%)
    Default : Нет
    Forced : Нет
    Аудио
    Идентификатор : 2
    Формат : AAC LC
    Формат/Информация : Advanced Audio Codec Low Complexity
    Идентификатор кодека : A_AAC-2
    Продолжительность : 53 м. 40 с.
    Битрейт : 192 Кбит/сек
    Каналы : 2 канала
    Channel layout : L R
    Частота : 48, 0 КГц
    Частота кадров : 46, 875 кадров/сек (1024 SPF)
    Метод сжатия : С потерями
    Размер потока : 72, 7 Мбайт (4%)
    Язык : Russian
    Default : Да
    Forced : Нет


    Первые цивилизации/First Civilizations (2018) HDTVRip [H.264/1080p-LQ] (Сезон 1, серии 1-4 из 4)
    Рейтинг →
     (голосов: 1, оценка 5/5, голосовать можно 1 раз )

    Другие торренты по теме:

  • PBS. Первые цивилизации / First Civilizations (2018) HDTVRip (1-4 серия из 4)
  • PBS. Первые цивилизации / First Civilizations (2018) HDTVRip [H.264 / 720p-LQ] (1-4 серия из 4)


    • Комментарии (0):

      Информация

      Информация

        Посетители, находящиеся в группе Гости, не могут оставлять комментарии в данной новости.

        ↓ Меню




        ↓ Опрос

        Вы добавили сайт в закладки?
        Да
        Нет


        Top 10 за месяц (Передачи)