.
Авторизация | Регистрация
Хочешь лучшие торренты? Добавь свой email!
Добавить

Торрент скачать бесплатно

  • support: webmaster@btracker.club
» » Биатлон. Кубок Мира 2018-2019. 3-й Этап. Нове-Место (Чехия). Мужчины. Масс-старт 15 км (23.12.2018) HDTVRip [H.264 / 720p-LQ] [hand made 50fps] торрент скачать бесплатно


    Биатлон. Кубок Мира 2018-2019. 3-й Этап. Нове-Место (Чехия). Мужчины. Масс-старт 15 км (23.12.2018) HDTVRip [H.264 / 720p-LQ] [hand made 50fps] торрент скачать бесплатно

    Опубликовал: fregat | Дата: 28-12-2018, 05:00 | .torrent скачали: 1

    Биатлон. Кубок Мира 2018-2019. 3-й Этап. Нове-Место (Чехия). Мужчины. Масс-старт 15 км (23.12.2018) HDTVRip [H.264 / 720p-LQ] [hand made 50fps]Телекомпания: Матч ТВ HD
    Жанр: Спорт
    Комментатор: Дмитрий Губерниев

    Описание
    23 декабря 2018 года, воскресенье. 13: 45 МСК
    Кубок Мира по биатлону сезон любимого сериалаа 2018-2019.
    Этап 3. Нове-Место (Чехия):
    Мужчины. Масс-старт 15 км
    Релиз от: Злобный Санчез
    Продолжительность: 01: 13: 05
    Качество видео: HDTVRip
    Язык озвучки: Русский, Интершум
    Субтитры: отсутствуют
    Видео: AVC/H.264, 1280x720 (16: 9), ~3971 Kbps, 50 fps
    Аудио #1: AC3, 2 ch, 48 kHz, 192 Kbps | Русский
    Аудио #2: AC3, 2 ch, 48 kHz, 192 Kbps | Интершум

    Общее
    Уникальный идентификатор : 288169594199389366886546725083177693778 (0xD8CB71EEFF304EA319FE47CB1E723252)
    Полное имя : F: SPORTБиатлонBMW IBU Biathlon World Cup 2018-2019.Nove Mesto(Czech Rep.). Stage 3BT1819SWRLCP03SMMS.mkv
    Формат : Matroska
    Версия формата : Version 2
    Размер файла : 2, 27 Гбайт
    Продолжительность : 1 ч. 13 м.
    Общий поток : 4444 Кбит/сек
    Программа кодирования : Lavf54.63.104
    Библиотека кодирования : Lavf54.63.104
    Видео
    Идентификатор : 1
    Формат : AVC
    Формат/Информация : Advanced Video Codec
    Профиль формата : High@L4.1
    Настройки формата : CABAC/4 Ref Frames
    Параметр CABAC формата : Да
    Параметр RefFrames формата : 4 кадра
    Параметр GOP формата : M=2, N=15
    Идентификатор кодека : V_MPEG4/ISO/AVC
    Продолжительность : 1 ч. 13 м.
    Битрейт : 3971 Кбит/сек
    Ширина : 1280 пикселей
    Высота : 720 пикселей
    Соотношение сторон : 16: 9
    Режим частоты кадров : Постоянный
    Частота кадров : 50, 000 кадров/сек
    Цветовое пространство : YUV
    Субдискретизация насыщенности : 4: 2: 0
    Битовая глубина : 8 бит
    Тип развёртки : Прогрессивная
    Бит/(Пиксели*Кадры) : 0.086
    Размер потока : 2, 03 Гбайт (89%)
    Default : Нет
    Forced : Нет
    Цветовой диапазон : Limited
    Основные цвета : BT.709
    Характеристики трансфера : BT.709
    Коэффициенты матрицы : BT.709
    Аудио #1
    Идентификатор : 2
    Формат : AC-3
    Формат/Информация : Audio Coding 3
    Идентификатор кодека : A_AC3
    Продолжительность : 1 ч. 13 м.
    Вид битрейта : Постоянный
    Битрейт : 192 Кбит/сек
    Каналы : 2 канала
    Расположение каналов : Front: L R
    Частота : 48, 0 КГц
    Частота кадров : 31, 250 кадров/сек (1536 SPF)
    Битовая глубина : 16 бит
    Метод сжатия : С потерями
    Размер потока : 100 Мбайт (4%)
    Язык : Russian
    ServiceKind/String : Complete Main
    Default : Да
    Forced : Нет
    Аудио #2
    Идентификатор : 3
    Формат : AC-3
    Формат/Информация : Audio Coding 3
    Идентификатор кодека : A_AC3
    Продолжительность : 1 ч. 13 м.
    Вид битрейта : Постоянный
    Битрейт : 192 Кбит/сек
    Каналы : 2 канала
    Расположение каналов : Front: L R
    Частота : 48, 0 КГц
    Частота кадров : 31, 250 кадров/сек (1536 SPF)
    Битовая глубина : 16 бит
    Метод сжатия : С потерями
    Размер потока : 100 Мбайт (4%)
    ServiceKind/String : Complete Main
    Default : Нет
    Forced : Нет

    Скриншоты для ознакомления



    Все одноименные релизы в Клубе
    Время раздачи: 24/7 (около 1 месяца)


    Биатлон. Кубок Мира 2018-2019. 3-й Этап. Нове-Место (Чехия). Мужчины. Масс-старт 15 км (23.12.2018) HDTVRip [H.264/720p-LQ] [hand made 50fps]
    Рейтинг →
     (голосов: 1, оценка 3/5, голосовать можно 1 раз )

    Другие торренты по теме:

  • Биатлон. Кубок Мира 2014-15. 4-й этап. Оберхоф (Германия). Эстафета. Мужчины (2015) HDTV [H.264 / 1080i]
  • Биатлон. Кубок Мира 2015-2016. 1 Этап. Эстерсунд (Швеция) (29.11.2015-06.12.2015) HDTVRip [H.264 / 720p-LQ] [hand made 50fps] скачать через торрент бесплатно
  • Биатлон. Кубок Мира 2015-2016. 2 Этап Хохфильцен (Австрия). Спринт (11.12.2015) HDTVRip [H.264 / 720p-LQ] скачать через торрент бесплатно
  • Биатлон. Кубок Мира 2015-2016. 2 Этап. Хохфильцен(Австрия). Гонка преследования (12.12.2015) HDTVRip [H.264 / 720p-LQ] скачать через торрент бесплатно
  • Биатлон. Кубок Мира 2015-2016. 2 Этап. Хохфильцен(Австрия). Эстафета (13.12.2015) HDTVRip [H.264 / 720p-LQ] скачать через торрент бесплатно
  • Биатлон. Кубок Мира 2015-2016. 3 Этап.Поклюка(Словения). Спринт 10 км Мужчины (17.12.2015) HDTVRip[H.264 / 720p-LQ] скачать через торрент бесплатно
  • Биатлон. Кубок Мира 2015-2016. 3 Этап. Поклюка(Словения). Гонка преследования (19.12.2015) HDTVRip [H.264 / 720p-LQ] скачать через торрент бесплатно
  • Биатлон. Кубок Мира 2015-2016. 3 Этап. Поклюка(Словения). Спринт 7,5 км Женщины (18.12.2015) HDTVRip[H.264 / 720p-LQ] скачать через торрент бесплатно


    • Комментарии (0):

      Информация

      Информация

        Посетители, находящиеся в группе Гости, не могут оставлять комментарии в данной новости.

        ↓ Меню




        ↓ Опрос

        Вы добавили сайт в закладки?
        Да
        Нет


        Top 10 за месяц (Передачи)