.
Авторизация | Регистрация
Хочешь лучшие торренты? Добавь свой email!
Добавить

Торрент скачать бесплатно

  • support: webmaster@btracker.club
» » Биатлон. Кубок Мира 2018-2019. 3-й Этап. Нове-Место (Чехия). Женщины. Масс-старт 12,5 км (23.12.2018) HDTV [H.264 / 1080i-LQ] торрент скачать бесплатно


    Биатлон. Кубок Мира 2018-2019. 3-й Этап. Нове-Место (Чехия). Женщины. Масс-старт 12,5 км (23.12.2018) HDTV [H.264 / 1080i-LQ] торрент скачать бесплатно

    Опубликовал: fregat | Дата: 28-12-2018, 05:00 | .torrent скачали: 2

    Биатлон. Кубок Мира 2018-2019. 3-й Этап. Нове-Место (Чехия). Женщины. Масс-старт 12,5 км (23.12.2018) HDTV [H.264 / 1080i-LQ]Телекомпания: Матч ТВ HD
    Жанр: Спорт
    Комментатор: Дмитрий Губерниев

    Описание
    23 декабря 2018 года, воскресенье. 16: 30 МСК
    Кубок Мира по биатлону сезон любимого сериалаа 2018-2019.
    Этап 3. Нове-Место (Чехия):
    Женщины. Масс-старт 12, 5 км
    Релиз от: Злобный Санчез
    Продолжительность: 01: 02: 07
    Качество видео: HDTVRip
    Язык озвучки: Русский, Интершум
    Субтитры: отсутствуют
    Видео: AVC/H.264, 1920x1080 (16: 9), ~9507 Kbps
    Аудио #1: MP2, 2 ch, 48 kHz, 192 Kbps | Русский
    Аудио #2: MP2, 2 ch, 48 kHz, 192 Kbps | Интершум

    Общее
    Идентификатор : 1 (0x1)
    Полное имя : F: SPORTБиатлонBMW IBU Biathlon World Cup 2018-2019.Nove Mesto(Czech Rep.). Stage 3BT1819SWRLCP03SWMS.ts
    Формат : MPEG-TS
    Размер файла : 4, 52 Гбайт
    Продолжительность : 1 ч. 2 м.
    Режим общего битрейта : Переменный
    Общий поток : 10, 4 Мбит/сек
    Видео
    Идентификатор : 204 (0xCC)
    Идентификатор меню : 2204 (0x89C)
    Формат : AVC
    Формат/Информация : Advanced Video Codec
    Профиль формата : High@L4
    Настройки формата : CABAC/4 Ref Frames
    Параметр CABAC формата : Да
    Параметр RefFrames формата : 4 кадра
    Идентификатор кодека : 27
    Продолжительность : 1 ч. 2 м.
    Битрейт : 9507 Кбит/сек
    Ширина : 1920 пикселей
    Высота : 1080 пикселей
    Соотношение сторон : 16: 9
    Частота кадров : 25, 000 кадров/сек
    Стандарт вещания : Component
    Цветовое пространство : YUV
    Субдискретизация насыщенности : 4: 2: 0
    Битовая глубина : 8 бит
    Тип развёртки : Чересстрочная
    Метод сохранения типа развёртки : Раздельные поля
    Порядок развёртки : Верхнее поле первое
    Бит/(Пиксели*Кадры) : 0.183
    Размер потока : 4, 12 Гбайт (91%)
    Цветовой диапазон : Limited
    Основные цвета : BT.709
    Характеристики трансфера : BT.709
    Коэффициенты матрицы : BT.709
    Аудио #1
    Идентификатор : 304 (0x130)
    Идентификатор меню : 2204 (0x89C)
    Формат : MPEG Audio
    Версия формата : Version 1
    Профиль формата : Layer 2
    Идентификатор кодека : 3
    Продолжительность : 1 ч. 2 м.
    Вид битрейта : Постоянный
    Битрейт : 192 Кбит/сек
    Каналы : 2 канала
    Частота : 48, 0 КГц
    Частота кадров : 41, 667 кадра/сек (1152 SPF)
    Метод сжатия : С потерями
    Задержка видео : -40 мс.
    Размер потока : 85, 3 Мбайт (2%)
    Язык : Russian
    Аудио #2
    Идентификатор : 305 (0x131)
    Идентификатор меню : 2204 (0x89C)
    Формат : MPEG Audio
    Версия формата : Version 1
    Профиль формата : Layer 2
    Идентификатор кодека : 3
    Продолжительность : 1 ч. 2 м.
    Вид битрейта : Постоянный
    Битрейт : 192 Кбит/сек
    Каналы : 2 канала
    Частота : 48, 0 КГц
    Частота кадров : 41, 667 кадра/сек (1152 SPF)
    Метод сжатия : С потерями
    Задержка видео : -40 мс.
    Размер потока : 85, 3 Мбайт (2%)

    Скриншоты для ознакомления



    Все одноименные релизы в Клубе
    Время раздачи: 24/7 (до появления первых 3-5 скачавших)


    Биатлон. Кубок Мира 2018-2019. 3-й Этап. Нове-Место (Чехия). Женщины. Масс-старт 12,5 км (23.12.2018) HDTV [H.264/1080i-LQ]
    Рейтинг →
     (голосов: 1, оценка 5/5, голосовать можно 1 раз )

    Другие торренты по теме:

  • Биатлон. Кубок Мира 2014-15. 4-й этап. Оберхоф (Германия). Эстафета. Мужчины (2015) HDTV [H.264 / 1080i]
  • Биатлон. Кубок Мира 2015-2016. 1 Этап. Эстерсунд (Швеция) (29.11.2015-06.12.2015) HDTVRip [H.264 / 720p-LQ] [hand made 50fps] скачать через торрент бесплатно
  • Биатлон. Кубок Мира 2015-2016. 2 Этап Хохфильцен (Австрия). Спринт (11.12.2015) HDTVRip [H.264 / 720p-LQ] скачать через торрент бесплатно
  • Биатлон. Кубок Мира 2015-2016. 2 Этап. Хохфильцен(Австрия). Гонка преследования (12.12.2015) HDTVRip [H.264 / 720p-LQ] скачать через торрент бесплатно
  • Биатлон. Кубок Мира 2015-2016. 2 Этап. Хохфильцен(Австрия). Эстафета (13.12.2015) HDTVRip [H.264 / 720p-LQ] скачать через торрент бесплатно
  • Биатлон. Кубок Мира 2015-2016. 3 Этап.Поклюка(Словения). Спринт 10 км Мужчины (17.12.2015) HDTVRip[H.264 / 720p-LQ] скачать через торрент бесплатно
  • Биатлон. Кубок Мира 2015-2016. 3 Этап. Поклюка(Словения). Гонка преследования (19.12.2015) HDTVRip [H.264 / 720p-LQ] скачать через торрент бесплатно
  • Биатлон. Кубок Мира 2015-2016. 3 Этап. Поклюка(Словения). Спринт 7,5 км Женщины (18.12.2015) HDTVRip[H.264 / 720p-LQ] скачать через торрент бесплатно


    • Комментарии (0):

      Информация

      Информация

        Посетители, находящиеся в группе Гости, не могут оставлять комментарии в данной новости.

        ↓ Меню




        ↓ Опрос

        Вы добавили сайт в закладки?
        Да
        Нет


        Top 10 за месяц (Передачи)