.
Авторизация | Регистрация
Хочешь лучшие торренты? Добавь свой email!
Добавить

Торрент скачать бесплатно

  • support: webmaster@btracker.club
» » Биатлон с Дмитрием Губерниевым. Сезон 2018-2019. Выпуск 4 (2018) HDTV [H.264 / 1080i-LQ] торрент скачать бесплатно


    Биатлон с Дмитрием Губерниевым. Сезон 2018-2019. Выпуск 4 (2018) HDTV [H.264 / 1080i-LQ] торрент скачать бесплатно

    Опубликовал: fregat | Дата: 28-12-2018, 05:00 | .torrent скачали: 0

    Биатлон с Дмитрием Губерниевым. Сезон 2018-2019. Выпуск 4 (2018) HDTV [H.264 / 1080i-LQ]Телекомпания: Матч ТВ HD
    Жанр: Телепередача, Спорт
    Ведущий: Дмитрий Губерниев

    Описание
    Эфир от: 23.12.2018
    Для биатлонистов зима - это время мобилизации сил и полной концентрации. Для зрителей - начало интереснейших соревнований и сильных переживаний за сборную. В программе все, о чем хотят знать болельщики: новости и комментарии, интервью с лидерами соревнований и рассказы о спортсменах и командах.
    Релиз от: Злобный Санчез
    Продолжительность: 00: 24: 29
    Качество видео: HDTV
    Язык озвучки: Русский
    Субтитры: отсутствуют
    Видео: AVC/H.264, 1920x1080 (16: 9), ~7532 Kbps
    Аудио #1: MP2, 2 ch, 48 kHz, 192 Kbp
    Аудио #2: MP2, 2 ch, 48 kHz, 192 Kbps

    Общее
    Идентификатор : 1 (0x1)
    Полное имя : C: UsersADMINDownloadsVideoSportБиатлон с Д. ГуберниевымБи с Гу. Сезон 2018-2019. Выпуск 4 (23.12.2018). Злобный.ts
    Формат : MPEG-TS
    Размер файла : 1, 43 Гбайт
    Продолжительность : 24 м. 29 с.
    Режим общего битрейта : Переменный
    Общий поток : 8332 Кбит/сек
    Видео
    Идентификатор : 204 (0xCC)
    Идентификатор меню : 2204 (0x89C)
    Формат : AVC
    Формат/Информация : Advanced Video Codec
    Профиль формата : High@L4
    Настройки формата : CABAC/4 Ref Frames
    Параметр CABAC формата : Да
    Параметр RefFrames формата : 4 кадра
    Идентификатор кодека : 27
    Продолжительность : 24 м. 29 с.
    Битрейт : 7532 Кбит/сек
    Ширина : 1920 пикселей
    Высота : 1080 пикселей
    Соотношение сторон : 16: 9
    Частота кадров : 25, 000 кадров/сек
    Стандарт вещания : Component
    Цветовое пространство : YUV
    Субдискретизация насыщенности : 4: 2: 0
    Битовая глубина : 8 бит
    Тип развёртки : Чересстрочная
    Метод сохранения типа развёртки : Раздельные поля
    Порядок развёртки : Верхнее поле первое
    Бит/(Пиксели*Кадры) : 0.145
    Размер потока : 1, 29 Гбайт (90%)
    Цветовой диапазон : Limited
    Основные цвета : BT.709
    Характеристики трансфера : BT.709
    Коэффициенты матрицы : BT.709
    Аудио #1
    Идентификатор : 304 (0x130)
    Идентификатор меню : 2204 (0x89C)
    Формат : MPEG Audio
    Версия формата : Version 1
    Профиль формата : Layer 2
    Идентификатор кодека : 3
    Продолжительность : 24 м. 29 с.
    Вид битрейта : Постоянный
    Битрейт : 192 Кбит/сек
    Каналы : 2 канала
    Частота : 48, 0 КГц
    Частота кадров : 41, 667 кадра/сек (1152 SPF)
    Метод сжатия : С потерями
    Задержка видео : -120 мс.
    Размер потока : 33, 6 Мбайт (2%)
    Язык : Russian
    Аудио #2
    Идентификатор : 305 (0x131)
    Идентификатор меню : 2204 (0x89C)
    Формат : MPEG Audio
    Версия формата : Version 1
    Профиль формата : Layer 2
    Идентификатор кодека : 3
    Продолжительность : 24 м. 29 с.
    Вид битрейта : Постоянный
    Битрейт : 192 Кбит/сек
    Каналы : 2 канала
    Частота : 48, 0 КГц
    Частота кадров : 41, 667 кадра/сек (1152 SPF)
    Метод сжатия : С потерями
    Задержка видео : -120 мс.
    Размер потока : 33, 6 Мбайт (2%)

    Скриншоты для ознакомления



    Все одноименные релизы в Клубе
    Время раздачи: 24/7 (до появления первых 3-5 скачавших)


    Биатлон с Дмитрием Губерниевым. Сезон 2018-2019. Выпуск 4 (2018) HDTV [H.264/1080i-LQ]
    Рейтинг →
     (голосов: 1, оценка 5/5, голосовать можно 1 раз )

    Другие торренты по теме:

  • Биатлон с Дмитрием Губерниевым (30.11.2014) SATRip (1 выпуск) скачать через торрент бесплатно
  • Биатлон с Дмитрием Губерниевым (1.12.2014) SATRip (2 выпуск) скачать через торрент бесплатно
  • Биатлон с Дмитрием Губерниевым (06.12.2014) SATRip
  • Биатлон с Дмитрием Губерниевым, Сезон 2015-2016. Выпуск 1. HDTVRip [H.264 / 720p-LQ] скачать через торрент бесплатно
  • Биатлон с Дмитрием Губерниевым. Сезон 2015-2016. Выпуск 2. HDTVRip [H.264 / 720p-LQ] скачать через торрент бесплатно
  • Биатлон с Дмитрием Губерниевым. Сезон 2015-2016. Выпуск 3 (2015) HDTVRip [H.264 / 720p-LQ] скачать через торрент бесплатно
  • Биатлон с Дмитрием Губерниевым. Сезон 2015-2016. Выпуск 4 (13.12.2015) HDTVRip [H.264 / 720p-LQ] скачать через торрент бесплатно
  • Биатлон с Дмитрием Губерниевым. Сезон 2015-2016. Выпуск 4-2 версия (17.12.2015) HDTVRip [H.264 / 720p-LQ] скачать через торрент бесплатно


    • Комментарии (0):

      Информация

      Информация

        Посетители, находящиеся в группе Гости, не могут оставлять комментарии в данной новости.

        ↓ Меню




        ↓ Опрос

        Вы добавили сайт в закладки?
        Да
        Нет


        Top 10 за месяц (Передачи)