.
Авторизация | Регистрация
Хочешь лучшие торренты? Добавь свой email!
Добавить

Торрент скачать бесплатно

  • support: webmaster@btracker.club
» » Вир Дас сходит с ума / Vir Das: Losing It (2018) WEBRip [VO, AD] торрент скачать бесплатно


    Вир Дас сходит с ума / Vir Das: Losing It (2018) WEBRip [VO, AD] торрент скачать бесплатно

    Опубликовал: fregat | Дата: 28-12-2018, 05:00 | .torrent скачали: 0

    Вир Дас сходит с ума / Vir Das: Losing It (2018) WEBRip [VO, AD]Производство: США/Netflix
    Жанр: Комедия, юмор, стендап
    Режиссер: Маркус Рабой

    Актеры
    Вир Дас

    Описание

    О фильме: Новый стенд-ап от Вир Даса, в котором он затронет темы Африки, Америки и Индии, а также умело пошутит про религию.

    Продолжительность: 01: 08: 10
    Качество видео: WEBRip
    Перевод: Одноголосый закадровый, любительский
    Озвучка/Автор перевода: Varun
    Субтитры: Отсутствуют
    Реклама: надписи, звуковые вставки и видео
    Видео: XviD, 720x404, 1900 Kbps
    Аудио: AC3, 2 ch, 384 Kbps
    General
    Complete name : K: Vir_Das_Losing_It_WEBRip_2018.avi
    Format : AVI
    Format/Info : Audio Video Interleave
    Format profile : OpenDML
    File size : 1.09 GiB
    Duration : 1 h 8 min
    Overall bit rate : 2 297 kb/s
    Writing application : Lavf57.48.101
    Video
    ID : 0
    Format : MPEG-4 Visual
    Format profile : Advanced Simple@L5
    Format settings : BVOP1
    Format settings, BVOP : 1
    Format settings, QPel : No
    Format settings, GMC : No warppoints
    Format settings, Matrix : Default (H.263)
    Codec ID : XVID
    Codec ID/Hint : XviD
    Duration : 1 h 8 min
    Bit rate : 1 900 kb/s
    Width : 720 pixels
    Height : 404 pixels
    Display aspect ratio : 16: 9
    Original display aspect rat : 16: 9
    Frame rate : 23.976 (24000/1001) FPS
    Color space : YUV
    Chroma subsampling : 4: 2: 0
    Bit depth : 8 bits
    Scan type : Progressive
    Compression mode : Lossy
    Bits/(Pixel*Frame) : 0.272
    Stream size : 926 MiB (83%)
    Writing library : Lavc57.54.101
    Audio
    ID : 1
    Format : AC-3
    Format/Info : Audio Coding 3
    Commercial name : Dolby Digital
    Codec ID : 2000
    Duration : 1 h 8 min
    Bit rate mode : Constant
    Bit rate : 384 kb/s
    Channel(s) : 2 channels
    Channel layout : L R
    Sampling rate : 48.0 kHz
    Frame rate : 31.250 FPS (1536 SPF)
    Bit depth : 16 bits
    Compression mode : Lossy
    Stream size : 187 MiB (17%)
    Alignment : Aligned on interleaves
    Interleave, duration : 32 ms (0.77 video frame)
    Service kind : Complete Main

    Скриншоты для ознакомления



    Все одноименные релизы в Клубе
    Время раздачи: 24/7 (до появления первых 3-5 скачавших)


    Вир Дас сходит с ума/Vir Das: Losing It (2018) WEBRip [VO, AD]
    Рейтинг →
     (голосов: 1, оценка 4/5, голосовать можно 1 раз )

    Другие торренты по теме:



      Комментарии (0):

      Информация

      Информация

        Посетители, находящиеся в группе Гости, не могут оставлять комментарии в данной новости.

        ↓ Меню




        ↓ Опрос

        Вы добавили сайт в закладки?
        Да
        Нет


        Top 10 за месяц (Передачи)