.
Авторизация | Регистрация
Хочешь лучшие торренты? Добавь свой email!
Добавить

Торрент скачать бесплатно

  • support: webmaster@btracker.club
» » Спецпроект Раскол. Фильм Аркадия Мамонтова (23.12.2018) HDTV [H.264 / 1080i-LQ] торрент скачать бесплатно


    Спецпроект Раскол. Фильм Аркадия Мамонтова (23.12.2018) HDTV [H.264 / 1080i-LQ] торрент скачать бесплатно

    Опубликовал: fregat | Дата: 28-12-2018, 05:00 | .torrent скачали: 5

    Спецпроект Раскол. Фильм Аркадия Мамонтова (23.12.2018) HDTV [H.264 / 1080i-LQ]Телекомпания: ВГТРК, Россия 1 HD
    Жанр: Документальный
    Автор: Аркадий Мамонтов
    Режиссер: Кирилл Ващенко

    Описание

    Сейчас начался новый крестовый поход на Москву. Американский госдеп, патриарх Варфоломей и Петр Порошенко объединились, чтобы сначала расколоть, а потом уничтожить Православие. Главная цель - это разрушить Церковь, а вместо неё создать псевдорелигиозную организацию. И всё это делается только для того, чтобы нас не было...
    Продолжительность: 00: 57: 11
    Качество видео: HDTV
    Субтитры: отсутствуют
    Видео: AVC/H.264, 1920x1080 (16: 9), ~8885 Kbps
    Аудио: AAC, 2 ch, 446 Kbps

    General
    Unique ID : 332257749715584958440844987710060732685 (0xF9F683D3513C1F659E10BB71B85DA10D)
    Complete name : D: Спецпроект Раскол. Фильм Аркадия Мамонтова (2018).mkv
    Format : Matroska
    Format version : Version 4/Version 2
    File size : 3.73 GiB
    Duration : 57 min 11 s
    Overall bit rate : 9 336 kb/s
    Encoded date : UTC 2018-12-26 20: 19: 26
    Writing application : mkvmerge v28.1.0 (\'Morning Child\') 64-bit
    Writing library : libebml v1.3.6 + libmatroska v1.4.9
    Cover : Yes
    Attachments : cover.png
    Video
    ID : 1
    Format : AVC
    Format/Info : Advanced Video Codec
    Format profile : High@L4
    Format settings : CABAC/4 Ref Frames
    Format settings, CABAC : Yes
    Format settings, ReFrames : 4 frames
    Codec ID : V_MPEG4/ISO/AVC
    Duration : 57 min 11 s
    Bit rate : 8 885 kb/s
    Width : 1 920 pixels
    Height : 1 080 pixels
    Display aspect ratio : 16: 9
    Frame rate mode : Constant
    Frame rate : 25.000 FPS
    Standard : Component
    Color space : YUV
    Chroma subsampling : 4: 2: 0
    Bit depth : 8 bits
    Scan type : Interlaced
    Scan type, store method : Separated fields
    Scan order : Top Field First
    Bits/(Pixel*Frame) : 0.171
    Stream size : 3.55 GiB (95%)
    Language : Russian
    Default : Yes
    Forced : No
    Color range : Limited
    Color primaries : BT.709
    Transfer characteristics : BT.709
    Matrix coefficients : BT.709
    Audio
    ID : 2
    Format : AAC
    Format/Info : Advanced Audio Codec
    Format profile : LC
    Codec ID : A_AAC-2
    Duration : 57 min 11 s
    Bit rate : 446 kb/s
    Channel(s) : 2 channels
    Channel positions : Front: L R
    Sampling rate : 44.1 kHz
    Frame rate : 43.066 FPS (1024 SPF)
    Compression mode : Lossy
    Stream size : 182 MiB (5%)
    Language : Russian
    Default : Yes
    Forced : No

    Скриншоты для ознакомления













    Все одноименные релизы в Клубе
    Время раздачи: 00: 30-03: 00 (до появления первых 3-5 скачавших)


    Спецпроект Раскол. Фильм Аркадия Мамонтова (23.12.2018) HDTV [H.264/1080i-LQ]
    Рейтинг →
     (голосов: 1, оценка 5/5, голосовать можно 1 раз )

    Другие торренты по теме:

  • Лига смеха (2017.12.15) WEB-DL [H.264 / 1080p-LQ] (сезон 3, выпуск 18: Спецпроект: Комики VS Шоу-бизнес)
  • Лига смеха (2017.12.15) WEB-DLRip (сезон 3, выпуск 18: Спецпроект: Комики VS Шоу-бизнес)


    • Комментарии (0):

      Информация

      Информация

        Посетители, находящиеся в группе Гости, не могут оставлять комментарии в данной новости.

        ↓ Меню




        ↓ Опрос

        Вы добавили сайт в закладки?
        Да
        Нет


        Top 10 за месяц (Передачи)