.
Авторизация | Регистрация

Торрент скачать бесплатно

  • support: webmaster@btracker.club
» » Всё как у зверей (2016-2017) [H.264 / 720p-LQ] (серии 27 из 27) торрент скачать бесплатно


    Всё как у зверей (2016-2017) [H.264 / 720p-LQ] (серии 27 из 27) торрент скачать бесплатно

    Дата: 28-12-2018, 05:00 | .torrent скачали: 1

    Всё как у зверей (2016-2017) [H.264 / 720p-LQ] (серии 27 из 27)Производство: Россия, ОАО Моя Планета
    Жанр: Документальный, научный, флора, фауна
    Режиссер: Серже Фененко
    Участники: Евгения Тимонова

    Описание

    Всё как у зверей — программа о том, в кого люди такие. Ее придумывает и ведет натуралист Женя Тимонова, снимает Олег Кугаев, комиксы рисует Акуаку, а режиссирует и монтирует Серже Фененко.
    Продолжительность: серии x ~00: 26: 00
    Качество видео: HDTVRip
    Язык озвучки: Русский
    Субтитры: отсутствуют
    Видео: AVC/H.264, 1280x720, ~1400 Kbps
    Аудио: AAC, 2 ch, 126 Kbps

    Общее
    Уникальный идентификатор : 79697431195099299037873307046275024647 (0x3BF52ABB763103BFD6956A09A2658707)
    Полное имя : F: КИНОVse kak u zverei.(1-27.film.iz.27 ).2016-2017.MPEG-4 AVC.HDTVRip14. Жилье.2016.MPEG-4 AVC.HDTVRip (720p).mkv
    Формат : Matroska
    Версия формата : Version 4
    Размер файла : 286 Мбайт
    Продолжительность : 26 м. 8 с.
    Общий поток : 1528 Кбит/сек
    Дата кодирования : UTC 2018-12-27 16: 26: 16
    Программа кодирования : mkvmerge v28.1.0 (\'Morning Child\') 64-bit
    Библиотека кодирования : libebml v1.3.6 + libmatroska v1.4.9
    Видео
    Идентификатор : 1
    Формат : AVC
    Формат/Информация : Advanced Video Codec
    Профиль формата : Main@L3.1
    Настройки формата : CABAC/3 Ref Frames
    Параметр CABAC формата : Да
    Параметр RefFrames формата : 3 кадра
    Идентификатор кодека : V_MPEG4/ISO/AVC
    Продолжительность : 26 м. 8 с.
    Битрейт : 1400 Кбит/сек
    Ширина : 1280 пикселей
    Высота : 720 пикселей
    Соотношение сторон : 16: 9
    Режим частоты кадров : Постоянный
    Частота кадров : 25, 000 кадров/сек
    Цветовое пространство : YUV
    Субдискретизация насыщенности : 4: 2: 0
    Битовая глубина : 8 бит
    Тип развёртки : Прогрессивная
    Бит/(Пиксели*Кадры) : 0.061
    Размер потока : 262 Мбайт (92%)
    Default : Да
    Forced : Нет
    Цветовой диапазон : Limited
    Основные цвета : BT.709
    Характеристики трансфера : BT.709
    Коэффициенты матрицы : BT.709
    Аудио
    Идентификатор : 2
    Формат : AAC LC
    Формат/Информация : Advanced Audio Codec Low Complexity
    Идентификатор кодека : A_AAC-2
    Продолжительность : 26 м. 8 с.
    Битрейт : 126 Кбит/сек
    Каналы : 2 канала
    Channel layout : L R
    Частота : 44, 1 КГц
    Частота кадров : 43, 066 кадра/сек (1024 SPF)
    Метод сжатия : С потерями
    Размер потока : 23, 5 Мбайт (8%)
    Default : Да
    Forced : Нет


    Всё как у зверей (2016-2017) [H.264/720p-LQ] (серии 27 из 27)
    Рейтинг →
     (голосов: 1, оценка 3/5, голосовать можно 1 раз )

    Другие торренты по теме:

  • Шествие золотых зверей (1978) SATRip [H.264] скачать через торрент бесплатно
  • Владимир Смирин | Портреты зверей Командорских островов (2007) [PDF] скачать через торрент бесплатно
  • Повелитель зверей / The Beastmaster (1982) BDRip [AVO] скачать через торрент бесплатно
  • Антон Емельянов, Сергей Савинов | Царь зверей. Часть 3 (2015) [FB2] скачать через торрент бесплатно
  • Михаил Крупин | Самозванец. Рай зверей (2003) [FB2]
  • Николай Балакирев и др. | Содержание, кормление и болезни клеточных пушных зверей (2013) [PDF, DJVU]
  • Антон Емельянов, Сергей Савинов | Царь зверей. Часть 4 (2016) [FB2]
  • Антон Емельянов, Сергей Савинов | Царь зверей. Часть 5 (2016) [FB2]


    • Комментарии (0):

      Информация

      Информация

        Посетители, находящиеся в группе Гости, не могут оставлять комментарии в данной новости.

        ↓ Меню




        ↓ Опрос

        Вы добавили сайт в закладки?
        Да
        Нет


        Top 10 за месяц (Передачи)