.
Авторизация | Регистрация
Хочешь лучшие торренты? Добавь свой email!
Добавить

Торрент скачать бесплатно

  • support: webmaster@btracker.club
» » BBC: Земля: Мощь планеты / Earth: The Power of the Planet (2007) BDRemux [VC-1 / 1080р] (сезон 1, серии 1-5 из 5) [PR] торрент скачать бесплатно


    BBC: Земля: Мощь планеты / Earth: The Power of the Planet (2007) BDRemux [VC-1 / 1080р] (сезон 1, серии 1-5 из 5) [PR] торрент скачать бесплатно

    Опубликовал: fregat | Дата: 27-12-2018, 05:00 | .torrent скачали: 0

    BBC: Земля: Мощь планеты / Earth: The Power of the Planet (2007) BDRemux [VC-1 / 1080р] (сезон 1, серии 1-5 из 5) [PR]Производство: Великобритания/British Broadcasting Corporation (BBC), National Geographic Channel, Zweites Deutsches Fernsehen (ZDF)
    Жанр Документальный
    Режиссер: Анабель Гиллингс, Мэтью Гевис, Софи Харрис, Бэн Лаври, Паул Олдинг

    Актеры
    Йен Стюарт, Виктор Бэйкер, Мириам Джексон

    Описание

    Перед вами невероятная история планеты Земля - единственной живой планеты во вселенной. Как же устроена наша планета? Как она работает, и что делает ее такой особенной? Исследуя великие силы, которые формируют Землю - вулканы, океан, атмосферу и лед - мы сможем узнать об их роли в истории нашей планеты. Как эти силы влияют на облик Земли, ее климат, и ее историю? Великолепный сериал телекомпании ВВС предоставляет нам удивительную возможность узнать о нашем доме как можно больше и понять, что Земля - исключительно редкий вид планеты. На долю человечества выпала тяжелая ответственность заботиться о нашем уникальном мире, чтобы сохранить его в том виде, какой он есть. Потрясающие съемки создают поистине грандиозный видеоряд, научные факты и комментарии специалистов создают тонкий баланс между драматическим и познавательным зрелищем - эта инновационная система повествования делает картину действительно завораживающей.

    Продолжительность: 5 x ~ 00: 59: 00
    Качество видео: BDRemux
    Перевод: Профессиональный (одноголосый)
    Субтитры: Русские
    Видео: VC-1, 1920х1080, ~30.0 Mbps
    Аудио 1: AC3 5.1, 224 Kbps - Русский
    Аудио 2: DTS HRA 5.1, 2047 Kbps (Core: 1509 Kbps) - Английский

    General
    Unique ID : 213077283267157761475795898913164960540 (0xA04D3128F66E8D198F2453EB117D231C)
    Complete name : Earth: The Power of the Planet (2008)/1. Volcano.mkv
    Format : Matroska
    Format version : Version 4/Version 2
    File size : 13.2 GiB
    Duration : 59 min 16 s
    Overall bit rate : 31.9 Mb/s
    Encoded date : UTC 2018-12-22 20: 20: 06
    Writing application : mkvmerge v19.0.0 (\'Brave Captain\') 64-bit
    Writing library : libebml v1.3.5 + libmatroska v1.4.8
    Video
    ID : 1
    Format : VC-1
    Format profile : Advanced@L3
    Codec ID : V_MS/VFW/FOURCC/WVC1
    Codec ID/Hint : Microsoft
    Duration : 59 min 16 s
    Bit rate : 29.6 Mb/s
    Width : 1 920 pixels
    Height : 1 080 pixels
    Display aspect ratio : 16: 9
    Frame rate mode : Constant
    Frame rate : 29.970 (30000/1001) FPS
    Color space : YUV
    Chroma subsampling : 4: 2: 0
    Bit depth : 8 bits
    Scan type : Interlaced
    Scan order : Top Field First
    Compression mode : Lossy
    Bits/(Pixel*Frame) : 0.477
    Stream size : 12.3 GiB (93%)
    Default : Yes
    Forced : No
    Audio #1
    ID : 2
    Format : AC-3
    Format/Info : Audio Coding 3
    Codec ID : A_AC3
    Duration : 59 min 16 s
    Bit rate mode : Constant
    Bit rate : 224 kb/s
    Channel(s) : 2 channels
    Channel positions : Front: L R
    Sampling rate : 48.0 kHz
    Frame rate : 31.250 FPS (1536 SPF)
    Bit depth : 16 bits
    Compression mode : Lossy
    Delay relative to video : 33 ms
    Stream size : 95.0 MiB (1%)
    Language : Russian
    Service kind : Complete Main
    Default : Yes
    Forced : No
    Audio #2
    ID : 3
    Format : DTS
    Format/Info : Digital Theater Systems
    Format profile : HRA/Core
    Codec ID : A_DTS
    Duration : 59 min 16 s
    Bit rate mode : Constant
    Bit rate : 2 046 kb/s/1 509 kb/s
    Channel(s) : 6 channels
    Channel positions : Front: L C R, Side: L R, LFE
    Sampling rate : 48.0 kHz
    Frame rate : 93.750 FPS (512 SPF)
    Bit depth : 24 bits
    Compression mode : Lossy
    Delay relative to video : 33 ms
    Stream size : 868 MiB (6%)
    Language : English
    Default : No
    Forced : No
    Text
    ID : 4
    Format : PGS
    Muxing mode : zlib
    Codec ID : S_HDMV/PGS
    Codec ID/Info : Picture based subtitle format used on BDs/HD-DVDs
    Duration : 59 min 2 s
    Bit rate : 42.0 kb/s
    Count of elements : 1424
    Stream size : 17.7 MiB (0%)
    Language : Russian
    Default : Yes
    Forced : No

    Скриншоты для ознакомления



    Все одноименные релизы в Клубе
    Время раздачи: 24/7


    BBC: Земля: Мощь планеты/Earth: The Power of the Planet (2007) BDRemux [VC-1/1080р] (сезон 1, серии 1-5 из 5) [PR]
    Рейтинг →
     (голосов: 1, оценка 5/5, голосовать можно 1 раз )

    Другие торренты по теме:

  • BBC: Земля: Мощь планеты / Earth: The Power of the Planet (2007) [H.264 / 1080р] 2xBlu-Ray (5 серий из 5)


    • Комментарии (0):

      Информация

      Информация

        Посетители, находящиеся в группе Гости, не могут оставлять комментарии в данной новости.

        ↓ Меню




        ↓ Опрос

        Вы добавили сайт в закладки?
        Да
        Нет


        Top 10 за месяц (Передачи)