.
Авторизация | Регистрация

Торрент скачать бесплатно

  • support: webmaster@btracker.club
» » Дарья Домрачева. Женщины и спорт (2018) HDTVRip торрент скачать бесплатно


    Дарья Домрачева. Женщины и спорт (2018) HDTVRip торрент скачать бесплатно

    Дата: 26-12-2018, 05:00 | .torrent скачали: 0

    Дарья Домрачева. Женщины и спорт (2018) HDTVRipТелекомпания: Беларусь 1
    Жанр: Документальный, спорт

    Описание

    Многократная олимпийская чемпионка, двукратная чемпионка мира, обладательница Кубка мира 2014/15, обладательница 5 малых Хрустальных глобусов Кубка мира по биатлону, заслуженный мастер спорта Республики Беларусь Дарья Домрачева.
    Релиз от: Алехаndr
    Продолжительность: 00: 27: 34
    Качество видео: HDTVRip
    Субтитры: Отсутствуют
    Видео: Xvid, 720x400 (16: 9), ~1675 Kbps
    Аудио: AC3, 2 ch, 192 Kbps

    Общее
    Полное имя : D: Дарья Домрачева. Женщины и спорт (2018).avi
    Формат : AVI
    Формат/Информация : Audio Video Interleave
    Размер файла : 370 Мбайт
    Продолжительность : 27 м. 34 с.
    Общий поток : 1875 Кбит/сек
    Программа кодирования : VirtualDubMod 1.5.10.3 | (build 2550/release)
    Библиотека кодирования : VirtualDubMod build 2550/release
    Видео
    Идентификатор : 0
    Формат : MPEG-4 Visual
    Профиль формата : Advanced Simple@L5
    Настройки формата : BVOP2
    Параметр BVOP формата : 2
    Параметр QPel формата : Нет
    Параметр GMC формата : Без точки перехода
    Параметр матрицы формата : Default (H.263)
    Идентификатор кодека : XVID
    Идентификатор кодека/Подсказка : XviD
    Продолжительность : 27 м. 34 с.
    Битрейт : 1673 Кбит/сек
    Ширина : 720 пикселей
    Высота : 400 пикселей
    Соотношение сторон : 16: 9
    Частота кадров : 25, 000 кадров/сек
    Цветовое пространство : YUV
    Субдискретизация насыщенности : 4: 2: 0
    Битовая глубина : 8 бит
    Тип развёртки : Прогрессивная
    Метод сжатия : С потерями
    Бит/(Пиксели*Кадры) : 0.232
    Размер потока : 330 Мбайт (89%)
    Библиотека кодирования : XviD 73
    Аудио
    Идентификатор : 1
    Формат : AC-3
    Формат/Информация : Audio Coding 3
    Коммерческое название : Dolby Digital
    Идентификатор кодека : 2000
    Продолжительность : 27 м. 34 с.
    Вид битрейта : Постоянный
    Битрейт : 192 Кбит/сек
    Каналы : 2 канала
    Channel layout : L R
    Частота : 48, 0 КГц
    Частота кадров : 31, 250 кадров/сек (1536 SPF)
    Битовая глубина : 16 бит
    Метод сжатия : С потерями
    Размер потока : 37, 9 Мбайт (10%)
    Выравнивание : Разделение по промежуткам
    Продолжительность промежутка : 40 мс. (1, 00 видеокадр)
    Время предзагрузки промежутка : 500 мс.
    ServiceKind/String : Complete Main

    Скриншоты для ознакомления



    Все одноименные релизы в Клубе
    Время раздачи: 24/7 (круглосуточно) (до появления первых 3-5 скачавших)


    Дарья Домрачева. Женщины и спорт (2018) HDTVRip
    Рейтинг →
     (голосов: 1, оценка 4/5, голосовать можно 1 раз )

    Другие торренты по теме:

  • Дарья Донцова | Собрание сочинений - 187 книг (2005-2014) [FB2 / RTF / EPUB / MOBI] [Обновляемая]
  • Дарья Донцова | Лунатик исчезает в полночь (2014) [MP3] скачать через торрент бесплатно
  • Дарья Донцова | Лунатик исчезает в полночь (2014) [MP3] скачать через торрент бесплатно
  • Дарья Бобылева | Забытый человек [сборник] (2014) [FB2] скачать через торрент бесплатно
  • Дарья Донцова | Судьба найдет на сеновале (2014) [MP3] скачать через торрент бесплатно
  • Дарья Нестерова | Запекаем в глиняных горшочках, в духовке и микроволновке (2011) [FB2]
  • Дарья Нестерова | 1000 лучших рецептов котлет, зраз, голубцов и другое рубленое мясо (2011) [FB2]
  • Дарья Калинина | Собрание сочинений [158 книг] (1999-2014) [FB2] скачать через торрент бесплатно


    • Комментарии (0):

      Информация

      Информация

        Посетители, находящиеся в группе Гости, не могут оставлять комментарии в данной новости.

        ↓ Меню




        ↓ Опрос

        Вы добавили сайт в закладки?
        Да
        Нет


        Top 10 за месяц (Передачи)