.
Авторизация | Регистрация
Хочешь лучшие торренты? Добавь свой email!
Добавить

Торрент скачать бесплатно

  • support: webmaster@btracker.club
» » Кошки и собаки: кто лучше / Cats v Dogs: Which Is Best (2016) HDTVRip (2 серии из 2) торрент скачать бесплатно


    Кошки и собаки: кто лучше / Cats v Dogs: Which Is Best (2016) HDTVRip (2 серии из 2) торрент скачать бесплатно

    Опубликовал: fregat | Дата: 26-12-2018, 05:00 | .torrent скачали: 0

    Кошки и собаки: кто лучше / Cats v Dogs: Which Is Best (2016) HDTVRip (2 серии из 2)Производство: Великобритания (Viasat Naturs)
    Жанр: Документальный, Природа

    Описание

    Вооружённые знаниями о последних научных исследованиях, эксперты Крис и Лиз пытаются ответить на вопрос, который наверняка интересовал многих людей: кто же лучше - кошки или собаки?

    Релиз от: Zakol
    Продолжительность: 00: 58: 31+00: 59: 03
    Качество видео: HDTVRip
    Перевод: Одноголосый закадровый, профессиональный (SDI Media)
    Видео: Xvid, 720х400, ~1800 Kbps
    Аудио: AC3, 2 ch, 128 Kbps

    Общее
    Полное имя : Кошки и собаки 1400M (2016)1 Кошки и собаки.avi
    Формат : AVI
    Формат/Информация : Audio Video Interleave
    Размер файла : 812 Мбайт
    Продолжительность : 58 м.
    Общий поток : 1939 Кбит/сек
    Программа кодирования : Lavf57.71.100
    Видео
    Идентификатор : 0
    Формат : MPEG-4 Visual
    Профиль формата : Advanced Simple@L5
    Параметр BVOP формата : 1
    Параметр QPel формата : Нет
    Параметр GMC формата : Без точки перехода
    Параметр матрицы формата : Default (H.263)
    Идентификатор кодека : XVID
    Идентификатор кодека/Подсказка : XviD
    Продолжительность : 58 м.
    Битрейт : 1800 Кбит/сек
    Ширина : 720 пикселей
    Высота : 400 пикселей
    Соотношение сторон : 16: 9
    Частота кадров : 25, 000 кадров/сек
    Цветовое пространство : YUV
    Субдискретизация насыщенности : 4: 2: 0
    Битовая глубина : 8 бит
    Тип развёртки : Прогрессивная
    Метод сжатия : С потерями
    Бит/(Пиксели*Кадры) : 0.250
    Размер потока : 753 Мбайт (93%)
    Библиотека кодирования : XviD 67
    Аудио
    Идентификатор : 1
    Формат : AC-3
    Формат/Информация : Audio Coding 3
    Расширение режима : CM (complete main)
    Параметр Endianness формата : Big
    Идентификатор кодека : 2000
    Продолжительность : 58 м.
    Вид битрейта : Постоянный
    Битрейт : 128 Кбит/сек
    Каналы : 2 канала
    Расположение каналов : Front: L R
    Частота : 48, 0 КГц
    Частота кадров : 31, 250 кадров/сек (1536 spf)
    Битовая глубина : 16 бит
    Метод сжатия : С потерями
    Размер потока : 53, 6 Мбайт (7%)
    Выравнивание : Соединение по промежуткам
    Продолжительность промежутка : 32 мс. (0, 80 видеокадр)

    Скриншоты для ознакомления



    Все одноименные релизы в Клубе
    Время раздачи: 24/7 (до появления первых 3-5 скачавших)


    Кошки и собаки: кто лучше/Cats v Dogs: Which Is Best (2016) HDTVRip (2 серии из 2)
    Рейтинг →
     (голосов: 1, оценка 3/5, голосовать можно 1 раз )

    Другие торренты по теме:

  • Нераскрытые тайны. Кто такие кошки (2014) SATRip
  • Бешеные кошки / Reservoir Cats (2011) WEB-DLRip скачать через торрент бесплатно
  • Люди-кошки / Cat People (1942) BDRip [H.264 / 720p] [hand made colored] скачать через торрент бесплатно
  • Кошки Jam - Несокрушимый (2015) [MP3|320 кб / с]<Alternative, Rock> скачать через торрент бесплатно
  • Детские пазлы. Кошки и Котята 1.0 [Ru] скачать через торрент бесплатно
  • Все кошки любят полакомиться / Alle Kаtzchen naschen gern (1969) DVDRip [H.264] [VO] скачать через торрент бесплатно
  • Картинки - Удивительные кошки [JPG] скачать через торрент бесплатно
  • Дина Рубина | Кошки в Иерусалиме (2016) [MP3]


    • Комментарии (0):

      Информация

      Информация

        Посетители, находящиеся в группе Гости, не могут оставлять комментарии в данной новости.

        ↓ Меню




        ↓ Опрос

        Вы добавили сайт в закладки?
        Да
        Нет


        Top 10 за месяц (Передачи)