.
Авторизация | Регистрация
Хочешь лучшие торренты? Добавь свой email!
Добавить

Торрент скачать бесплатно

  • support: webmaster@btracker.club
» » NG: Майкл Пэйлин в Северной Корее / North Korea: Michael Palins Journey (2018) DVB (cерии 1-2) торрент скачать бесплатно


    NG: Майкл Пэйлин в Северной Корее / North Korea: Michael Palins Journey (2018) DVB (cерии 1-2) торрент скачать бесплатно

    Опубликовал: fregat | Дата: 26-12-2018, 05:00 | .torrent скачали: 0

    NG: Майкл Пэйлин в Северной Корее / North Korea: Michael Palins Journey (2018) DVB (cерии 1-2)Производство: Великобритания, ITN Productions, National Geographic
    Жанр: Документальный, исследование
    Режиссер: Нейл Фергюсон
    Участники: Майкл Пэйлин

    Описание

    Историческая встреча между северокорейским лидером Ким-Чен-Ыном и президентом Южной Кореи Мун Чже Ином оказалась на первых полосах газет всего мира, создав одновременно для журналистов уникальную возможность посещения этого государства-изгоя. Когда эта новость распространилась по стране, Майкл с командой приехал в Северную Корею и провел эти поистине исторические для него дни, общаясь с простыми людьми из этой загадочной страны. Майкл в своих поездках по стране посещал места и населенные пункты, в которых очень редко появлялись люди из других стран, беседовал с гражданами из всех слоев общества, а также присутствовал на праздновании ежегодного праздника Первого мая.

    Релиз от: Zakol
    Продолжительность: 00: 44: 00
    Качество видео: DVB
    Перевод: Одноголосый закадровый, профессиональный (Велес)
    Субтитры: отсутствуют
    Видео: MPEG-2, 720х576@1024x576, ~3250 Kbps
    Аудио#1: MP2, 2 ch, 192 Kbps | Русский (читает: Вадим Прохоров)
    Аудио#2: MP2, 2 ch, 192 Kbps | Английский

    Общее
    Идентификатор : 1 (0x1)
    Полное имя : F: КИНОМайкл Пэйлин в С. К. DVB (2018)1 Майкл Пэйлин в С. К..ts
    Формат : MPEG-TS
    Размер файла : 1, 19 Гбайт
    Продолжительность : 44 м. 19 с.
    Режим общего битрейта : Переменный
    Общий поток : 3828 Кбит/сек
    Видео
    Идентификатор : 274 (0x112)
    Идентификатор меню : 25 (0x19)
    Формат : MPEG Video
    Версия формата : Version 2
    Профиль формата : Main@Main
    Настройки формата : CustomMatrix
    Параметр BVOP формата : Нет
    Параметр матрицы формата : Выборочная
    Параметр GOP формата : N=33
    Структура изображения : Frame
    Идентификатор кодека : 2
    Продолжительность : 44 м. 19 с.
    Вид битрейта : Переменный
    Битрейт : 3251 Кбит/сек
    Максимальный битрейт : 3300 Кбит/сек
    Ширина : 720 пикселей
    Высота : 576 пикселей
    Соотношение сторон : 16: 9
    Частота кадров : 25, 000 кадров/сек
    Стандарт вещания : PAL
    Цветовое пространство : YUV
    Субдискретизация насыщенности : 4: 2: 0
    Битовая глубина : 8 бит
    Тип развёртки : Чересстрочная
    Порядок развёртки : Верхнее поле первое
    Метод сжатия : С потерями
    Бит/(Пиксели*Кадры) : 0.314
    Временной код первого кадра : 00: 00: 00: 00
    Оригинал временного кода : Group of pictures t_head
    GOP, открыто/закрыто : Закрыто
    Размер потока : 1, 01 Гбайт (85%)
    Аудио #1
    Идентификатор : 275 (0x113)
    Идентификатор меню : 25 (0x19)
    Формат : MPEG Audio
    Версия формата : Version 1
    Профиль формата : Layer 2
    Идентификатор кодека : 3
    Продолжительность : 44 м. 19 с.
    Вид битрейта : Постоянный
    Битрейт : 192 Кбит/сек
    Каналы : 2 канала
    Частота : 48, 0 КГц
    Частота кадров : 41, 667 кадра/сек (1152 SPF)
    Метод сжатия : С потерями
    Задержка видео : 18 мс.
    Размер потока : 60, 9 Мбайт (5%)
    Язык : Russian
    Аудио #2
    Идентификатор : 276 (0x114)
    Идентификатор меню : 25 (0x19)
    Формат : MPEG Audio
    Версия формата : Version 1
    Профиль формата : Layer 2
    Идентификатор кодека : 3
    Продолжительность : 44 м. 19 с.
    Вид битрейта : Постоянный
    Битрейт : 192 Кбит/сек
    Каналы : 2 канала
    Частота : 48, 0 КГц
    Частота кадров : 41, 667 кадра/сек (1152 SPF)
    Метод сжатия : С потерями
    Задержка видео : 18 мс.
    Размер потока : 60, 9 Мбайт (5%)
    Язык : English

    Скриншоты для ознакомления



    Все одноименные релизы в Клубе
    Время раздачи: с 18: 00 до 23: 00 (до появления первых 3-5 скачавших)


    NG: Майкл Пэйлин в Северной Корее/North Korea: Michael Palins Journey (2018) DVB (cерии 1-2)
    Рейтинг →
     (голосов: 1, оценка 4/5, голосовать можно 1 раз )

    Другие торренты по теме:

  • Бенджамин Сполл, Майкл Ксандер | Утренние ритуалы. Как успешные люди начинают свой день (2019) [PDF]
  • Майкл Мюррей, Майкл Рей | Введение в философию религии (2010) [FB2, RTF]
  • Михаил [Майкл] Фарадей | Силы материи и их взаимоотношения (1940) [DJVU] скачать через торрент бесплатно
  • Майкл Муркок | Рыцарь мечей (Хроники Корума - 1) (2014) [MP3] скачать через торрент бесплатно
  • Майкл Стэкпол | Разбойный эскадрон (2014) [MP3]
  • Майкл Сера - Грегори Уходит В Отрыв / Грегори Срывается / Michael Cera - Gregory Go Boom (2013) [H.264 / 1080p-LQ] скачать через торрент бесплатно
  • Майкл Ши | Собрание сочинений [6 книг] (2004-2007) [FB2] скачать через торрент бесплатно
  • Майкл Сера — Облом / Michael Cera — Failure (2013) [H.264 / 1080p-LQ]


    • Комментарии (0):

      Информация

      Информация

        Посетители, находящиеся в группе Гости, не могут оставлять комментарии в данной новости.

        ↓ Меню




        ↓ Опрос

        Вы добавили сайт в закладки?
        Да
        Нет


        Top 10 за месяц (Передачи)