.
Авторизация | Регистрация
Хочешь лучшие торренты? Добавь свой email!
Добавить

Торрент скачать бесплатно

  • support: webmaster@btracker.club
» » Новые секреты Помпеи / Pompeii: New Secrets Revealed (2016) HDTVRip [H.264 / 1080p-LQ] торрент скачать бесплатно


    Новые секреты Помпеи / Pompeii: New Secrets Revealed (2016) HDTVRip [H.264 / 1080p-LQ] торрент скачать бесплатно

    Опубликовал: fregat | Дата: 26-12-2018, 05:00 | .torrent скачали: 2

    Новые секреты Помпеи / Pompeii: New Secrets Revealed (2016) HDTVRip [H.264 / 1080p-LQ]Производство: Великобритания, Lion Television
    Жанр: Документальный, история, исследования
    Режиссер: Ян А. Хант
    Участники: Ведущая: Мэри Бирд

    Описание

    Историк Мэри Бирд отправляется на раскопки древнего города, застывшего во времени из-за извержения вулкана в 79 году н.э. За всё время раскопок было немало рассказано об этом городе, но тем не менее секретов у него ещё предостаточно, целая треть города ещё покоится в застывшей лаве, а также мы практически ничего не знаем о том, чьи тела были найдены. С использованием последних достижений техники был начат огромный проект по раскопкам 30% города, которые лежат погребёнными под слоем пепла и лавы, в надежде открыть новые факты о трагически погибших людях. Впервые будут извлечены застывшие тела погибших, чтобы провести идентификацию, включая забор образцов ДНК!

    Релиз от: рип Zakol
    Продолжительность: 00: 59: 05
    Качество видео: HDTVRip
    Перевод: Одноголосый закадровый, профессиональный (SDI Media)
    Субтитры: отсутствуют
    Видео: AVC/H.264, 1920x1080, ~4000 Kbps
    Аудио: AAC, 2 ch, 192 Kbps (текст читала: Виктория Бабанова)

    Общее
    Уникальный идентификатор : 54362405232966420153610905226553855628 (0x28E5D1833BAD149FE050D60C6B700E8C)
    Полное имя : F: КИНОНовые секреты Помпеи 1080 (2016).mkv
    Формат : Matroska
    Версия формата : Version 4
    Размер файла : 1, 75 Гбайт
    Продолжительность : 59 м. 5 с.
    Режим общего битрейта : Переменный
    Общий поток : 4232 Кбит/сек
    Дата кодирования : UTC 2018-12-25 15: 16: 43
    Программа кодирования : mkvmerge v28.1.0 (\'Morning Child\') 64-bit
    Библиотека кодирования : libebml v1.3.6 + libmatroska v1.4.9
    Видео
    Идентификатор : 1
    Формат : AVC
    Формат/Информация : Advanced Video Codec
    Профиль формата : High@L4
    Настройки формата : CABAC/4 Ref Frames
    Параметр CABAC формата : Да
    Параметр RefFrames формата : 4 кадра
    Идентификатор кодека : V_MPEG4/ISO/AVC
    Продолжительность : 59 м. 5 с.
    Вид битрейта : Переменный
    Битрейт : 4040 Кбит/сек
    Максимальный битрейт : 4500 Кбит/сек
    Ширина : 1920 пикселей
    Высота : 1080 пикселей
    Соотношение сторон : 16: 9
    Режим частоты кадров : Постоянный
    Частота кадров : 25, 000 кадров/сек
    Цветовое пространство : YUV
    Субдискретизация насыщенности : 4: 2: 0
    Битовая глубина : 8 бит
    Тип развёртки : Прогрессивная
    Бит/(Пиксели*Кадры) : 0.078
    Размер потока : 1, 67 Гбайт (95%)
    Default : Нет
    Forced : Нет
    Аудио
    Идентификатор : 2
    Формат : AAC LC
    Формат/Информация : Advanced Audio Codec Low Complexity
    Идентификатор кодека : A_AAC-2
    Продолжительность : 59 м. 5 с.
    Битрейт : 192 Кбит/сек
    Каналы : 2 канала
    Channel layout : L R
    Частота : 48, 0 КГц
    Частота кадров : 46, 875 кадров/сек (1024 SPF)
    Метод сжатия : С потерями
    Размер потока : 80, 0 Мбайт (4%)
    Язык : Russian
    Default : Да
    Forced : Нет

    Скриншоты для ознакомления



    Все одноименные релизы в Клубе
    Время раздачи: с 18: 00 до 23: 00 (до появления первых 3-5 скачавших)


    Новые секреты Помпеи/Pompeii: New Secrets Revealed (2016) HDTVRip [H.264/1080p-LQ]
    Рейтинг →
     (голосов: 1, оценка 4/5, голосовать можно 1 раз )

    Другие торренты по теме:

  • Помпеи: новые секреты / Pompeii: New Secrets Revealed with Mary Beard (2016)HDTVRip


    • Комментарии (0):

      Информация

      Информация

        Посетители, находящиеся в группе Гости, не могут оставлять комментарии в данной новости.

        ↓ Меню




        ↓ Опрос

        Вы добавили сайт в закладки?
        Да
        Нет


        Top 10 за месяц (Передачи)