.
Авторизация | Регистрация
Хочешь лучшие торренты? Добавь свой email!
Добавить

Торрент скачать бесплатно

  • support: webmaster@btracker.club
» » Настоящий доктор Живаго / The Real Doctor Zhivago (2017) HDTVRip [H.264 / 1080p-LQ] торрент скачать бесплатно


    Настоящий доктор Живаго / The Real Doctor Zhivago (2017) HDTVRip [H.264 / 1080p-LQ] торрент скачать бесплатно

    Опубликовал: fregat | Дата: 26-12-2018, 05:00 | .torrent скачали: 1

    Настоящий доктор Живаго / The Real Doctor Zhivago (2017) HDTVRip [H.264 / 1080p-LQ]Производство: Великобритания, Matchlight, BBC Scotland
    Жанр: Документальный, история, исследование
    Режиссер: Джордж Катро
    Участники: Стивен Смит

    Описание

    Стивен Смит изучает истоки книги, ставшей бестселлером. Это одна из самых величайших историй любви ХХ-го века. Повествование о страсти и страхе на фоне революции и насилия. Но это рассказ не о Юрии Живаго и Ларе, а об их создателе - Борисе Пастернаке, человеке, ставшим узником в собственной стране.

    Релиз от: рип Zakol
    Продолжительность: 00: 55: 46
    Качество видео: HDTVRip
    Перевод: Одноголосый закадровый, профессиональный (SDI Media)
    Субтитры: отсутствуют
    Видео: AVC/H.264, 1920x1080, ~4000 Kbps
    Аудио: AAC, 2 ch, 192 Kbps

    Общее
    Уникальный идентификатор : 111400055677021292623305154223898976154 (0x53CEDECC356FDC669D843A8025115F9A)
    Полное имя : F: КИНОНастоящий док. Живаго 1080 (2017).mkv
    Формат : Matroska
    Версия формата : Version 4
    Размер файла : 1, 65 Гбайт
    Продолжительность : 55 м. 46 с.
    Режим общего битрейта : Переменный
    Общий поток : 4245 Кбит/сек
    Дата кодирования : UTC 2018-12-25 16: 49: 00
    Программа кодирования : mkvmerge v28.1.0 (\'Morning Child\') 64-bit
    Библиотека кодирования : libebml v1.3.6 + libmatroska v1.4.9
    Видео
    Идентификатор : 1
    Формат : AVC
    Формат/Информация : Advanced Video Codec
    Профиль формата : High@L4
    Настройки формата : CABAC/4 Ref Frames
    Параметр CABAC формата : Да
    Параметр RefFrames формата : 4 кадра
    Идентификатор кодека : V_MPEG4/ISO/AVC
    Продолжительность : 55 м. 46 с.
    Вид битрейта : Переменный
    Битрейт : 4053 Кбит/сек
    Максимальный битрейт : 4500 Кбит/сек
    Ширина : 1920 пикселей
    Высота : 1080 пикселей
    Соотношение сторон : 16: 9
    Режим частоты кадров : Постоянный
    Частота кадров : 25, 000 кадров/сек
    Цветовое пространство : YUV
    Субдискретизация насыщенности : 4: 2: 0
    Битовая глубина : 8 бит
    Тип развёртки : Прогрессивная
    Бит/(Пиксели*Кадры) : 0.078
    Размер потока : 1, 58 Гбайт (95%)
    Default : Нет
    Forced : Нет
    Аудио
    Идентификатор : 2
    Формат : AAC LC
    Формат/Информация : Advanced Audio Codec Low Complexity
    Идентификатор кодека : A_AAC-2
    Продолжительность : 55 м. 46 с.
    Битрейт : 192 Кбит/сек
    Каналы : 2 канала
    Channel layout : L R
    Частота : 48, 0 КГц
    Частота кадров : 46, 875 кадров/сек (1024 SPF)
    Метод сжатия : С потерями
    Размер потока : 75, 5 Мбайт (4%)
    Язык : Russian
    Default : Да
    Forced : Нет

    Скриншоты для ознакомления



    Все одноименные релизы в Клубе
    Время раздачи: с 18: 00 до 23: 00 (до появления первых 3-5 скачавших)


    Настоящий доктор Живаго/The Real Doctor Zhivago (2017) HDTVRip [H.264/1080p-LQ]
    Рейтинг →
     (голосов: 1, оценка 4/5, голосовать можно 1 раз )

    Другие торренты по теме:

  • BBC. Настоящий доктор Живаго / The Real Doctor Zhivago (2017) HDTVRip


    • Комментарии (0):

      Информация

      Информация

        Посетители, находящиеся в группе Гости, не могут оставлять комментарии в данной новости.

        ↓ Меню




        ↓ Опрос

        Вы добавили сайт в закладки?
        Да
        Нет


        Top 10 за месяц (Передачи)