.
Авторизация | Регистрация
Хочешь лучшие торренты? Добавь свой email!
Добавить

Торрент скачать бесплатно

  • support: webmaster@btracker.club
» » NGW: Братья сафари / Safari Brothers (2016) HDTV [H.264 / 1080i-LQ] (Сезон 1, серии 1-4 из 6) (Обновляемая) торрент скачать бесплатно


    NGW: Братья сафари / Safari Brothers (2016) HDTV [H.264 / 1080i-LQ] (Сезон 1, серии 1-4 из 6) (Обновляемая) торрент скачать бесплатно

    Опубликовал: fregat | Дата: 26-12-2018, 05:00 | .torrent скачали: 0

    NGW: Братья сафари / Safari Brothers (2016) HDTV [H.264 / 1080i-LQ] (Сезон 1, серии 1-4 из 6) (Обновляемая)Производство: США, Symbio Studios, Nat Geo Wild
    Жанр: Документальный, природа, флора, фауна
    Продюсер: Патрик Грин
    Участники: Брент Рид, Грант Рид, Майк Рид

    Описание

    Брент и Грант Ридс обитают в самом диком месте дельты реки Окаванго. Они покажут, как работают плечом к плечу с самыми известными животными планеты. Вместе они создали одну из самых успешных сафари-компаний Ботсваны. Вы увидите, как харизматичная пара преодолевает трудности, связанные с ведением бизнеса в диких условиях.

    Релиз от: Zakol
    Продолжительность: серии x ~00: 42: 30
    Качество видео: HDTV
    Перевод: Одноголосый закадровый, профессиональный (Велес)
    Субтитры: отсутствуют
    Видео: AVC/H.264, 1920x1080, ~7036 Kbps
    Аудио#1: MP2, 2 ch, 192 Kbps | Русский (читает: Юрий Романов)
    Аудио#2: MP2, 2 ch, 192 Kbps | Английский

    Общее
    Идентификатор : 1 (0x1)
    Полное имя : F: КИНОБратья сафари 1080 (2016)3 Братья сафари.ts
    Формат : MPEG-TS
    Размер файла : 2, 32 Гбайт
    Продолжительность : 42 м. 30 с.
    Режим общего битрейта : Переменный
    Общий поток : 7810 Кбит/сек
    Видео
    Идентификатор : 1154 (0x482)
    Идентификатор меню : 135 (0x87)
    Формат : AVC
    Формат/Информация : Advanced Video Codec
    Профиль формата : Main@L4
    Настройки формата : CABAC/4 Ref Frames
    Параметр CABAC формата : Да
    Параметр RefFrames формата : 4 кадра
    Идентификатор кодека : 27
    Продолжительность : 42 м. 30 с.
    Битрейт : 7036 Кбит/сек
    Ширина : 1920 пикселей
    Высота : 1080 пикселей
    Соотношение сторон : 16: 9
    Частота кадров : 25, 000 кадров/сек
    Стандарт вещания : Component
    Цветовое пространство : YUV
    Субдискретизация насыщенности : 4: 2: 0
    Битовая глубина : 8 бит
    Тип развёртки : Чересстрочная
    Метод сохранения типа развёртки : Раздельные поля
    Порядок развёртки : Верхнее поле первое
    Бит/(Пиксели*Кадры) : 0.136
    Размер потока : 2, 09 Гбайт (90%)
    Цветовой диапазон : Limited
    Основные цвета : BT.709
    Характеристики трансфера : BT.709
    Коэффициенты матрицы : BT.709
    Аудио #1
    Идентификатор : 1155 (0x483)
    Идентификатор меню : 135 (0x87)
    Формат : MPEG Audio
    Версия формата : Version 1
    Профиль формата : Layer 2
    Идентификатор кодека : 3
    Продолжительность : 42 м. 30 с.
    Вид битрейта : Постоянный
    Битрейт : 192 Кбит/сек
    Каналы : 2 канала
    Частота : 48, 0 КГц
    Частота кадров : 41, 667 кадра/сек (1152 SPF)
    Метод сжатия : С потерями
    Размер потока : 58, 4 Мбайт (2%)
    Язык : Russian
    Аудио #2
    Идентификатор : 1156 (0x484)
    Идентификатор меню : 135 (0x87)
    Формат : MPEG Audio
    Версия формата : Version 1
    Профиль формата : Layer 2
    Идентификатор кодека : 3
    Продолжительность : 42 м. 30 с.
    Вид битрейта : Постоянный
    Битрейт : 192 Кбит/сек
    Каналы : 2 канала
    Частота : 48, 0 КГц
    Частота кадров : 41, 667 кадра/сек (1152 SPF)
    Метод сжатия : С потерями
    Размер потока : 58, 4 Мбайт (2%)
    Язык : English


    NGW: Братья сафари/Safari Brothers (2016) HDTV [H.264/1080i-LQ] (Сезон 1, серии 1-4 из 6) (Обновляемая)
    Рейтинг →
     (голосов: 1, оценка 5/5, голосовать можно 1 раз )

    Другие торренты по теме:

  • Братья Дорохины - Братья Дорохины (1999) [FLAC|Lossless|image + .cue] <Pop>
  • [Фотография] Братья наши меньшие, красивые и не очень. Фотографии пользователей NoNaMe Club
  • Брати Гадюкіни(Братья Гадюкины) - Made in Ukraine (2014) [MP3|320 кб / с] <Rock> скачать через торрент бесплатно
  • Корсиканские братья / I fratelli Corsi / Les Freres Corses (1961) DVDRip [H.264]
  • Братья по обмену (2014) WEB-DLRip [H.264 / 720p-LQ] (сезон 2, серии 1-4 из 12) (обновляемая)
  • Братья по обмену (2014) SATRip (сезон 2, серии 01-04 из 10) (oбновляемая)
  • Братья по обмену (2014) WEB-DLRip (сезон 2, серии 1-7 из 12) (обновляемая) скачать через торрент бесплатно
  • Братья по обмену (2014) WEB-DLRip [H.264] (сезон 2, серии 1-12 из 12)


    • Комментарии (0):

      Информация

      Информация

        Посетители, находящиеся в группе Гости, не могут оставлять комментарии в данной новости.

        ↓ Меню




        ↓ Опрос

        Вы добавили сайт в закладки?
        Да
        Нет


        Top 10 за месяц (Передачи)