.
Авторизация | Регистрация
Хочешь лучшие торренты? Добавь свой email!
Добавить

Торрент скачать бесплатно

  • support: webmaster@btracker.club
» » NGW: Динорыба / Dinofish (2011) HDTV [H.264 / 1080i-LQ] торрент скачать бесплатно


    NGW: Динорыба / Dinofish (2011) HDTV [H.264 / 1080i-LQ] торрент скачать бесплатно

    Опубликовал: fregat | Дата: 25-12-2018, 05:00 | .torrent скачали: 0

    NGW: Динорыба / Dinofish (2011) HDTV [H.264 / 1080i-LQ]Производство: США, Earth Touch, National Geographic Channel
    Жанр: Документальный, исследование
    Режиссер: Грэм Дуэйн

    Описание

    2001 год, Содвана Бей, Южная Африка. Команда дайверов охотится за живым динозавром. У них ровно 15 минут чтобы найти его. Эта мрачная преисподняя - место легенд. Но здесь, по-близости есть нечто реальное. В этой экспедиции один из дайверов погиб. Спустя десятилетие после трагедии в Содване элитное подразделение возвращается на южно-африканское побережье. Их задание - погрузиться на 120 метров в сумеречную зону, чтобы выследить живого динозавра, который считался потерянным звеном эволюции. Возглавил экспедицию доктор Ричард Пайл - один из пионеров глубоководных исследований. Задача экспедиции найти живую латимерию. Охота на латимерию уже погубила трех человек. Подобно космонавтам в открытом космосе дайверы используют специальное снаряжение, чтобы выжить в смертельно опасных условиях океанских глубин.

    Релиз от: BLUEBIRD
    Продолжительность: 00: 44: 57
    Качество видео: HDTV
    Перевод: Одноголосый закадровый, профессиональный (АРК-ТВ)
    Субтитры: отсутствуют
    Видео: AVC/H.264, 1920x1080, ~6319 Kbps
    Аудио#1: AC3, 2 ch, 192 Kbps | Русский (читает Михаил Тихонов)
    Аудио#2: AC3, 6 ch, 384 Kbps | Английский
    Аудио#3: AC3, 6 ch, 384 Kbps | Немецкий

    Общее
    Уникальный идентификатор : 170366761283958044646887843485737115552 (0x802B71D86AA3DAE2B1A8D3261F595FA0)
    Полное имя : F: КИНОDinofish.(2011).1080i.HDTV.Rus.Eng.Ger-BLUEBIRD.mkv
    Формат : Matroska
    Версия формата : Version 4
    Размер файла : 2, 29 Гбайт
    Продолжительность : 44 м. 57 с.
    Общий поток : 7281 Кбит/сек
    Дата кодирования : UTC 2018-12-22 11: 39: 40
    Программа кодирования : mkvmerge v8.0.0 (\'Til The Day That I Die\') 32bit
    Библиотека кодирования : libebml v1.3.1 + libmatroska v1.4.2
    Видео
    Идентификатор : 1
    Формат : AVC
    Формат/Информация : Advanced Video Codec
    Профиль формата : High@L4
    Настройки формата : CABAC/4 Ref Frames
    Параметр CABAC формата : Да
    Параметр RefFrames формата : 4 кадра
    Идентификатор кодека : V_MPEG4/ISO/AVC
    Продолжительность : 44 м. 57 с.
    Битрейт : 6319 Кбит/сек
    Ширина : 1920 пикселей
    Высота : 1080 пикселей
    Соотношение сторон : 16: 9
    Режим частоты кадров : Постоянный
    Частота кадров : 25, 000 кадров/сек
    Стандарт вещания : Component
    Цветовое пространство : YUV
    Субдискретизация насыщенности : 4: 2: 0
    Битовая глубина : 8 бит
    Тип развёртки : Чересстрочная
    Метод сохранения типа развёртки : Раздельные поля
    Порядок развёртки : Верхнее поле первое
    Бит/(Пиксели*Кадры) : 0.122
    Размер потока : 1, 98 Гбайт (87%)
    Default : Нет
    Forced : Нет
    Цветовой диапазон : Limited
    Основные цвета : BT.709
    Характеристики трансфера : BT.709
    Коэффициенты матрицы : BT.709
    Аудио #1
    Идентификатор : 2
    Формат : AC-3
    Формат/Информация : Audio Coding 3
    Коммерческое название : Dolby Digital
    Идентификатор кодека : A_AC3
    Продолжительность : 44 м. 57 с.
    Вид битрейта : Постоянный
    Битрейт : 192 Кбит/сек
    Каналы : 2 канала
    Channel layout : L R
    Частота : 48, 0 КГц
    Частота кадров : 31, 250 кадров/сек (1536 SPF)
    Битовая глубина : 16 бит
    Метод сжатия : С потерями
    Размер потока : 61, 7 Мбайт (3%)
    Заголовок : rus 2.0 AC3
    Язык : Russian
    ServiceKind/String : Complete Main
    Default : Да
    Forced : Да
    Аудио #2
    Идентификатор : 3
    Формат : AC-3
    Формат/Информация : Audio Coding 3
    Коммерческое название : Dolby Digital
    Идентификатор кодека : A_AC3
    Продолжительность : 44 м. 57 с.
    Вид битрейта : Постоянный
    Битрейт : 384 Кбит/сек
    Каналы : 6 каналов
    Channel layout : L R C LFE Ls Rs
    Частота : 48, 0 КГц
    Частота кадров : 31, 250 кадров/сек (1536 SPF)
    Битовая глубина : 16 бит
    Метод сжатия : С потерями
    Размер потока : 123 Мбайт (5%)
    Заголовок : eng 5.1 AC3
    Язык : English
    ServiceKind/String : Complete Main
    Default : Нет
    Forced : Нет
    Аудио #3
    Идентификатор : 4
    Формат : AC-3
    Формат/Информация : Audio Coding 3
    Коммерческое название : Dolby Digital
    Идентификатор кодека : A_AC3
    Продолжительность : 44 м. 57 с.
    Вид битрейта : Постоянный
    Битрейт : 384 Кбит/сек
    Каналы : 6 каналов
    Channel layout : L R C LFE Ls Rs
    Частота : 48, 0 КГц
    Частота кадров : 31, 250 кадров/сек (1536 SPF)
    Битовая глубина : 16 бит
    Метод сжатия : С потерями
    Размер потока : 123 Мбайт (5%)
    Заголовок : ger 5.1 AC3
    Язык : German
    ServiceKind/String : Complete Main
    Default : Нет
    Forced : Нет

    Скриншоты для ознакомления



    Все одноименные релизы в Клубе
    Время раздачи: с 18: 00 до 23: 00 (до появления первых 3-5 скачавших)


    NGW: Динорыба/Dinofish (2011) HDTV [H.264/1080i-LQ]
    Рейтинг →
     (голосов: 1, оценка 5/5, голосовать можно 1 раз )

    Другие торренты по теме:



      Комментарии (0):

      Информация

      Информация

        Посетители, находящиеся в группе Гости, не могут оставлять комментарии в данной новости.

        ↓ Меню




        ↓ Опрос

        Вы добавили сайт в закладки?
        Да
        Нет


        Top 10 за месяц (Передачи)