.
Авторизация | Регистрация
Хочешь лучшие торренты? Добавь свой email!
Добавить

Торрент скачать бесплатно

  • support: webmaster@btracker.club
» » Без кубков и медалей (2018) WEBRip [H.264 / 1080p-LQ] торрент скачать бесплатно


    Без кубков и медалей (2018) WEBRip [H.264 / 1080p-LQ] торрент скачать бесплатно

    Опубликовал: fregat | Дата: 24-12-2018, 05:00 | .torrent скачали: 0

    Без кубков и медалей (2018) WEBRip [H.264 / 1080p-LQ]Производство: Россия
    Жанр: Документальный, спорт
    Режиссер: Тимоти Джордж Келли, Александра Кулак, Ростислав Смирнягин

    Описание

    Три истории о футболе, которые объединяют самых разных и самых обыкновенных людей по всей стране: от шестнадцатилетнего парня во Владивостоке до футбольной команды девочек во Владикавказе.

    Возраст: 16+ (зрителям, достигшим 16 лет)
    Продолжительность: 01: 13: 38
    Качество видео: WEBRip
    Субтитры: Английские (вшитые не отключаемые)
    Видео: AVC/H.264, 1920x1080 (16: 9), ~5000 Kbps
    Аудио: AC3, 2 ch, 192 Kbps

    Общее
    Уникальный идентификатор : 150893793808559062605211299966840017961 (0x7185166C6AB623E3417B87B2D9A11429)
    Полное имя : D: 1Без кубков и медалей (2018).mkv
    Формат : Matroska
    Версия формата : Version 4
    Размер файла : 2, 66 Гбайт
    Продолжительность : 1 ч. 13 м.
    Общий поток : 5178 Кбит/сек
    Дата кодирования : UTC 2018-12-23 09: 06: 15
    Программа кодирования : mkvmerge v29.0.0 (\'Like It Or Not\') 32-bit
    Библиотека кодирования : libebml v1.3.6 + libmatroska v1.4.9/Lavf57.71.100
    Видео
    Идентификатор : 1
    Формат : AVC
    Формат/Информация : Advanced Video Codec
    Профиль формата : High@L4
    Настройки формата : CABAC/5 Ref Frames
    Параметр CABAC формата : Да
    Параметр RefFrames формата : 5 кадров
    Идентификатор кодека : V_MPEG4/ISO/AVC
    Продолжительность : 1 ч. 13 м.
    Битрейт : 5000 Кбит/сек
    Ширина : 1920 пикселей
    Высота : 1080 пикселей
    Соотношение сторон : 16: 9
    Режим частоты кадров : Постоянный
    Частота кадров : 25, 000 кадров/сек
    Цветовое пространство : YUV
    Субдискретизация насыщенности : 4: 2: 0
    Битовая глубина : 8 бит
    Тип развёртки : Прогрессивная
    Бит/(Пиксели*Кадры) : 0.096
    Размер потока : 2, 56 Гбайт (96%)
    Библиотека кодирования : x264 core 155 r10 7d0ff22
    Настройки программы : cabac=1/ref=5/deblock=1: 0: 0/analyse=0x3: 0x113/me=hex/subme=8/psy=1/psy_rd=1.00: 0.00/mixed_ref=1/me_range=16/chroma_me=1/trellis=2/8x8dct=1/cqm=0/deadzone=21, 11/fast_pskip=1/chroma_qp_offset=-2/threads=34/lookahead_threads=5/sliced_threads=0/nr=0/decimate=1/interlaced=0/bluray_compat=0/stitchable=1/constrained_intra=0/bframes=3/b_pyramid=2/b_adapt=2/b_bias=0/direct=3/weightb=1/open_gop=0/weightp=2/keyint=infinite/keyint_min=25/scenecut=40/intra_refresh=0/rc_lookahead=50/rc=2pass/mbtree=1/bitrate=5000/ratetol=1.0/qcomp=0.60/qpmin=5/qpmax=69/qpstep=4/cplxblur=20.0/qblur=0.5/vbv_maxrate=5500/vbv_bufsize=15000/nal_hrd=none/filler=0/ip_ratio=1.40/aq=1: 1.00
    Default : Да
    Forced : Нет
    Цветовой диапазон : Limited
    Основные цвета : BT.709
    Характеристики трансфера : BT.709
    Коэффициенты матрицы : BT.709
    Аудио
    Идентификатор : 2
    Формат : AC-3
    Формат/Информация : Audio Coding 3
    Коммерческое название : Dolby Digital
    Идентификатор кодека : A_AC3
    Продолжительность : 1 ч. 13 м.
    Вид битрейта : Постоянный
    Битрейт : 192 Кбит/сек
    Каналы : 2 канала
    Channel layout : L R
    Частота : 48, 0 КГц
    Частота кадров : 31, 250 кадров/сек (1536 SPF)
    Битовая глубина : 16 бит
    Метод сжатия : С потерями
    Размер потока : 101 Мбайт (4%)
    ServiceKind/String : Complete Main
    Default : Да
    Forced : Нет

    Скриншоты для ознакомления



    Все одноименные релизы в Клубе
    Время раздачи: 24/7 (круглосуточно) (до появления первых 3-5 скачавших)


    Без кубков и медалей (2018) WEBRip [H.264/1080p-LQ]
    Рейтинг →
     (голосов: 1, оценка 4/5, голосовать можно 1 раз )

    Другие торренты по теме:

  • Рыцарь кубков / Knight of Cups (2015) HDRip скачать через торрент бесплатно
  • Рыцарь кубков / Knight of Cups (2015) HDRip скачать через торрент бесплатно
  • Рыцарь кубков / Knight of Cups (2015) BDRemux [H.264 / 1080p] [EN / EN, Ge Sub] скачать через торрент бесплатно
  • Рыцарь кубков / Knight of Cups (2015) BDRip [H.264]
  • Рыцарь кубков / Knight of Cups (2015) BDRip [H.264 / 720p] [EN / EN Sub]
  • Рыцарь кубков / Knight of Cups (2015) BDRip [H.264 / 720p]
  • Рыцарь кубков / Knight of Cups (2015) BDRip
  • Рыцарь кубков / Knight of Cups (2015) Blu-ray [H.264 / 1080p] [Custom]


    • Комментарии (0):

      Информация

      Информация

        Посетители, находящиеся в группе Гости, не могут оставлять комментарии в данной новости.

        ↓ Меню




        ↓ Опрос

        Вы добавили сайт в закладки?
        Да
        Нет


        Top 10 за месяц (Передачи)