.
Авторизация | Регистрация
Хочешь лучшие торренты? Добавь свой email!
Добавить

Торрент скачать бесплатно

  • support: webmaster@btracker.club
» » Одесса (1935) DVDRip торрент скачать бесплатно


    Одесса (1935) DVDRip торрент скачать бесплатно

    Опубликовал: fregat | Дата: 24-12-2018, 05:00 | .torrent скачали: 2

    Одесса (1935) DVDRipПроизводство: СССР, 1-ая комсомольская Одесская кино-фабрика
    Жанр: Документальный, Хроника, История
    Режиссер: Жан Лодс
    Участники: текст читает Исаак Бабель

    Описание

    Документальный фильм Одесса, который снимал в 1935 году французский режиссер Жан Лодс (1905 -1975 ), считался утраченным. Он был обнаружен в России только в 2001 году среди копий, переданных немецкими кинематографистами.
    Как и ряд других иностранных деятелей культуры, Жан Лодс прибыл в СССР чтобы создать какое-то художественное произведение - спектакль поставить, фильм снять. Лодс решил сделать фильм об Одессе... Это как бы обзорная экскурсия по городу, на современном языке - рекламный ролик Одессы для иностранцев. Фильм посвящен началу широкомасштабного благоустройства города Одессы в 1935 году.
    Продолжительность: 00: 22: 23
    Качество видео: DVDRip
    Видео: DivX 5, 688x528, ~1927 Kbps
    Аудио: MP3, 2 ch, 128 Kbps

    Общее
    Полное имя : F: КИНОOdessa.1935.DivX.DVDRip-Opex84.avi
    Формат : AVI
    Формат/Информация : Audio Video Interleave
    Размер файла : 330 Мбайт
    Продолжительность : 22 м. 23 с.
    Режим общего битрейта : Переменный
    Общий поток : 2061 Кбит/сек
    Видео
    Идентификатор : 0
    Формат : MPEG-4 Visual
    Настройки формата : BVOP1
    Параметр BVOP формата : 1
    Параметр QPel формата : Нет
    Параметр GMC формата : Без точки перехода
    Параметр матрицы формата : Default (H.263)
    Режим смешивания : Сжатый битовый поток
    Идентификатор кодека : DX50
    Идентификатор кодека/Подсказка : DivX 5
    Продолжительность : 22 м. 23 с.
    Битрейт : 1927 Кбит/сек
    Номинальный битрейт : 4000 Кбит/сек
    Ширина : 688 пикселей
    Высота : 528 пикселей
    Соотношение сторон : 4: 3
    Частота кадров : 25, 000 кадров/сек
    Цветовое пространство : YUV
    Субдискретизация насыщенности : 4: 2: 0
    Битовая глубина : 8 бит
    Тип развёртки : Прогрессивная
    Метод сжатия : С потерями
    Бит/(Пиксели*Кадры) : 0.212
    Размер потока : 309 Мбайт (94%)
    Заголовок : Video
    Библиотека кодирования : DivX 5.2.1 Alpha (UTC 2004-09-08)
    Аудио
    Идентификатор : 1
    Формат : MPEG Audio
    Версия формата : Version 1
    Профиль формата : Layer 3
    Настройки формата : Joint stereo/MS Stereo
    Идентификатор кодека : 55
    Идентификатор кодека/Подсказка : MP3
    Продолжительность : 22 м. 23 с.
    Вид битрейта : Переменный
    Битрейт : 128 Кбит/сек
    Каналы : 2 канала
    Частота : 44, 1 КГц
    Метод сжатия : С потерями
    Размер потока : 19, 4 Мбайт (6%)
    Выравнивание : Соединение по промежуткам
    Продолжительность промежутка : 26 мс. (0, 65 видеокадр)
    Время предзагрузки промежутка : 524 мс.
    Заголовок : Audio

    Скриншоты для ознакомления




    Все одноименные релизы в Клубе
    Время раздачи: с 18: 00 до 23: 00 (до появления первых 3-5 скачавших)


    Одесса (1935) DVDRip
    Рейтинг →
     (голосов: 1, оценка 5/5, голосовать можно 1 раз )

    Другие торренты по теме:

  • Исаак Бабель - Одесса-Москва-Одесса (2009) TVRip скачать через торрент бесплатно
  • Одесса-мама (2012) WEB-DLRip [H.264 / 720p-LQ] (серии 1-12 из 12)
  • Одесса-мама (2012) WEB-DLRip [H.264 / 1080p-LQ] (серии 1-12 из 12)
  • Одесса-мама (2012) WEB-DLRip (серии 1-12 из 12) скачать через торрент бесплатно
  • Леонид Азбель и Катенька Дроздовская - Старая Одесса (2001) [MP3|320 кб / с] <Шансон>
  • Ривка Апостол-Рабинович | Одесса шутит. От Дерибасовской до Привоза имеем сказать пару слов! (2016) [FB2]
  • Маки - Одесса (1988) Repress 1989 [FLAC 2.0|96 / 24|image +.cue|Vinyl-Rip] <Pop, Pop Rock>
  • Проводник (2016.09.) SATRip (выпуск 5: Одесса)


    • Комментарии (0):

      Информация

      Информация

        Посетители, находящиеся в группе Гости, не могут оставлять комментарии в данной новости.

        ↓ Меню




        ↓ Опрос

        Вы добавили сайт в закладки?
        Да
        Нет


        Top 10 за месяц (Передачи)