.
Авторизация | Регистрация

Торрент скачать бесплатно

  • support: webmaster@btracker.club
» » Одесса (1935) DVD5 торрент скачать бесплатно


    Одесса (1935) DVD5 торрент скачать бесплатно

    Дата: 24-12-2018, 05:00 | .torrent скачали: 0

    Одесса (1935) DVD5Производство: СССР, 1-ая комсомольская Одесская кино-фабрика
    Жанр: Документальный, Хроника, История
    Режиссер: Жан Лодс
    Оператор: Г. Айзенберг
    Композитор: К. Данькевич
    Текст: И. Бабеля

    Описание
    Хроникально-документальный фильм 1-й комсомольской Одесской кино-фабрики, посвященный началу широкомасштабного благоустройства города Одессы в 1935-м году.
    Документальный фильм Одесса, который снимал в 1935 году французский режиссер Жан Лодс (1905 -1975), считался утраченным. Он был обнаружен в России только в 2001 году среди копий, переданных немецкими кинематографистами.
    Как и ряд других иностранных деятелей культуры, Жан Лодс прибыл в СССР чтобы создать какое-то художественное произведение - спектакль поставить, фильм снять. Лодс решил сделать фильм об Одессе....
    Интервью с киноведом Александром Дерябиным
    Продолжительность: 00: 22: 23
    Качество видео: DVD5
    Видео: MPEG-2, PAL 720x576 (4: 3), ~6000 kbps, 25, 000 fps, 0, 577 bpp
    Аудио: LPCM, 2 ch, 1536 Kbps
    General
    Complete name : Odessa_1935_nnm-clubVIDEO_TSVTS_01_1.VOB
    Format : MPEG-PS
    File size : 1 024 MiB
    Duration : 18 min 42 s
    Overall bit rate mode : Variable
    Overall bit rate : 7 656 kb/s
    Video
    ID : 224 (0xE0)
    Format : MPEG Video
    Format version : Version 2
    Format profile : Main@Main
    Format settings : CustomMatrix/BVOP
    Format settings, BVOP : Yes
    Format settings, Matrix : Custom
    Format settings, GOP : M=3, N=15
    Format settings, picture structure : Frame
    Duration : 18 min 42 s
    Bit rate mode : Variable
    Bit rate : 6 000 kb/s
    Width : 720 pixels
    Height : 576 pixels
    Display aspect ratio : 4: 3
    Frame rate : 25.000 FPS
    Standard : PAL
    Color space : YUV
    Chroma subsampling : 4: 2: 0
    Bit depth : 8 bits
    Scan type : Interlaced
    Scan order : Top Field First
    Compression mode : Lossy
    Bits/(Pixel*Frame) : 0.579
    Time code of first frame : 00: 00: 00: 01
    Time code source : Group of pictures t_head
    GOP, Open/Closed : Open
    GOP, Open/Closed of first frame : Closed
    Stream size : 798 MiB (78%)
    Audio
    ID : 189 (0xBD)-160 (0xA0)
    Format : PCM
    Format settings : Big/Signed
    Muxing mode : DVD-Video
    Duration : 18 min 41 s
    Bit rate mode : Constant
    Bit rate : 1 536 kb/s
    Channel(s) : 2 channels
    Sampling rate : 48.0 kHz
    Bit depth : 16 bits
    Stream size : 205 MiB (20%)
    Menu

    Скриншоты для ознакомления




    Одесса (1935) DVD5
    Рейтинг →
     (голосов: 1, оценка 5/5, голосовать можно 1 раз )

    Другие торренты по теме:

  • Исаак Бабель - Одесса-Москва-Одесса (2009) TVRip скачать через торрент бесплатно
  • Одесса-мама (2012) WEB-DLRip [H.264 / 720p-LQ] (серии 1-12 из 12)
  • Одесса-мама (2012) WEB-DLRip [H.264 / 1080p-LQ] (серии 1-12 из 12)
  • Одесса-мама (2012) WEB-DLRip (серии 1-12 из 12) скачать через торрент бесплатно
  • Леонид Азбель и Катенька Дроздовская - Старая Одесса (2001) [MP3|320 кб / с] <Шансон>
  • Ривка Апостол-Рабинович | Одесса шутит. От Дерибасовской до Привоза имеем сказать пару слов! (2016) [FB2]
  • Маки - Одесса (1988) Repress 1989 [FLAC 2.0|96 / 24|image +.cue|Vinyl-Rip] <Pop, Pop Rock>
  • Проводник (2016.09.) SATRip (выпуск 5: Одесса)


    • Комментарии (0):

      Информация

      Информация

        Посетители, находящиеся в группе Гости, не могут оставлять комментарии в данной новости.

        ↓ Меню




        ↓ Опрос

        Вы добавили сайт в закладки?
        Да
        Нет


        Top 10 за месяц (Передачи)