.
Авторизация | Регистрация
Хочешь лучшие торренты? Добавь свой email!
Добавить

Торрент скачать бесплатно

  • support: webmaster@btracker.club
» » Южная Америка / South America (2018) WEBRip [H.264 / 2160p] [4K, HDR] торрент скачать бесплатно


    Южная Америка / South America (2018) WEBRip [H.264 / 2160p] [4K, HDR] торрент скачать бесплатно

    Опубликовал: fregat | Дата: 24-12-2018, 05:00 | .torrent скачали: 1

    Южная Америка / South America (2018) WEBRip [H.264 / 2160p] [4K, HDR]Производство: Южная Америка, VJUS
    Жанр: Документальный, видовой
    Режиссер: Мортен Рустад

    Описание

    В этом короткометражном фильме вы отправитесь в путешествие по невероятно разнообразным ландшафтам этого внушительного континента, Южной Америки. Один год путешествия, девять стран, бесчисленное количество часов на автобусах, мотоциклах и автомобилях. Сотни тысяч снимков. Использовано 30 ТБ данных, 5 месяцев редактирования. Покадровый фильм рассказывает о Южной Америке, как никогда раньше, с изображениями из Бразилии, Венесуэлы, Гайаны, Колумбии, Аргентины, Чили, Перу, Боливии и Эквадора.
    Продолжительность: 00: 07: 55
    Качество видео: WEBRip
    Перевод: Не требуется (нет диалогов и комментариев)
    Субтитры: отсутствуют
    Видео: AVC/H.264, 3840x1634, ~15, 6 Mbps
    Аудио: AAC, 2 ch, 137 Kbps

    Общее
    Уникальный идентификатор : 187540382922020000928467373707423274165 (0x8D16F6C3CC39DFE2E8BCD8678ED254B5)
    Полное имя : F: КИНОЮЖНАЯ АМЕРИКА.mkv
    Формат : Matroska
    Версия формата : Version 4
    Размер файла : 891 Мбайт
    Продолжительность : 7 м. 55 с.
    Общий поток : 15, 7 Мбит/сек
    Дата кодирования : UTC 2018-12-23 17: 58: 30
    Программа кодирования : mkvmerge v28.1.0 (\'Morning Child\') 64-bit
    Библиотека кодирования : libebml v1.3.6 + libmatroska v1.4.9
    Видео
    Идентификатор : 1
    Формат : AVC
    Формат/Информация : Advanced Video Codec
    Профиль формата : High@L5.2
    Настройки формата : CABAC/5 Ref Frames
    Параметр CABAC формата : Да
    Параметр RefFrames формата : 5 кадров
    Идентификатор кодека : V_MPEG4/ISO/AVC
    Продолжительность : 7 м. 55 с.
    Битрейт : 15, 6 Мбит/сек
    Ширина : 3840 пикселей
    Высота : 1634 пикселя
    Соотношение сторон : 2, 35: 1
    Режим частоты кадров : Постоянный
    Частота кадров : 23, 976 (24000/1001) кадра/сек
    Цветовое пространство : YUV
    Субдискретизация насыщенности : 4: 2: 0
    Битовая глубина : 8 бит
    Тип развёртки : Прогрессивная
    Бит/(Пиксели*Кадры) : 0.104
    Размер потока : 883 Мбайт (99%)
    Библиотека кодирования : x264 core 157 r10 545de2f
    Настройки программы : cabac=1/ref=5/deblock=1: 0: 0/analyse=0x3: 0x113/me=hex/subme=8/psy=1/psy_rd=1.00: 0.00/mixed_ref=1/me_range=16/chroma_me=1/trellis=2/8x8dct=1/cqm=0/deadzone=21, 11/fast_pskip=1/chroma_qp_offset=-2/threads=48/lookahead_threads=8/sliced_threads=0/nr=0/decimate=1/interlaced=0/bluray_compat=0/stitchable=1/constrained_intra=0/bframes=3/b_pyramid=2/b_adapt=2/b_bias=0/direct=3/weightb=1/open_gop=0/weightp=2/keyint=infinite/keyint_min=23/scenecut=40/intra_refresh=0/rc_lookahead=50/rc=crf/mbtree=1/crf=20.0/qcomp=0.60/qpmin=5/qpmax=69/qpstep=4/vbv_maxrate=24200/vbv_bufsize=66000/crf_max=0.0/nal_hrd=none/filler=0/ip_ratio=1.40/aq=1: 1.00
    Default : Да
    Forced : Нет
    Цветовой диапазон : Limited
    Основные цвета : BT.709
    Характеристики трансфера : BT.709
    Коэффициенты матрицы : BT.709
    Аудио
    Идентификатор : 2
    Формат : AAC LC
    Формат/Информация : Advanced Audio Codec Low Complexity
    Идентификатор кодека : A_AAC-2
    Продолжительность : 7 м. 55 с.
    Битрейт : 137 Кбит/сек
    Каналы : 2 канала
    Channel layout : L R
    Частота : 48, 0 КГц
    Частота кадров : 46, 875 кадров/сек (1024 SPF)
    Метод сжатия : С потерями
    Размер потока : 7, 77 Мбайт (1%)
    Default : Да
    Forced : Нет

    Скриншоты для ознакомления



    Все одноименные релизы в Клубе
    Время раздачи: с 18: 00 до 23: 00 (до появления первых 3-5 скачавших)


    Южная Америка/South America (2018) WEBRip [H.264/2160p] [4K, HDR]
    Рейтинг →
     (голосов: 1, оценка 3/5, голосовать можно 1 раз )

    Другие торренты по теме:

  • Футбол. Чемпионат Мира 2018. Отборочный турнир. Южная Америка. 5-й тур. Чили - Аргентина (24.03.2016) HDTVRip [H.264 / 720p-LQ]
  • Футбол. Чемпионат Мира 2018. Отборочный турнир. Южная Америка. 5-й тур. Перу - Венесуэла (24.03.2016) HDTVRip [H.264 / 720p-LQ] [PL]
  • Футбол. Чемпионат Мира 2018. Отборочный турнир. Южная Америка. 5-й тур. Бразилия - Уругвай (25.03.2016) HDTVRip [H.264 / 720p-LQ]
  • Футбол. Чемпионат Мира 2018. Отборочный турнир. Южная Америка. 6-й тур. Парагвай - Бразилия (29.03.2016) HDTVRip [H.264 / 720p-LQ]
  • Футбол. Чемпионат Мира 2018. Отборочный турнир. Южная Америка. 6-й тур. Венесуэла - Чили (29.03.2016) HDTVRip [H.264 / 720p-LQ] [PL]
  • Футбол. Чемпионат Мира 2018. Отборочный турнир. Южная Америка. 6-й тур. Аргентина - Боливия (29.03.2016) HDTVRip [H.264 / 720p-LQ] [DK]
  • Футбол. Чемпионат Мира 2018. Отборочный турнир. Южная Америка. 6-й тур. Уругвай - Перу (29.03.2016) HDTVRip [H.264 / 720p-LQ] [PL]
  • Футбол. Чемпионат Мира 2018. Отборочный турнир. Южная Америка. 6-й тур. Колумбия - Эквадор (29.03.2016) HDTVRip [H.264 / 720p-LQ] [PL]


    • Комментарии (0):

      Информация

      Информация

        Посетители, находящиеся в группе Гости, не могут оставлять комментарии в данной новости.

        ↓ Меню




        ↓ Опрос

        Вы добавили сайт в закладки?
        Да
        Нет


        Top 10 за месяц (Передачи)