.
Авторизация | Регистрация

Торрент скачать бесплатно

  • support: webmaster@btracker.club
» » Def Leppard: История группы / Def Leppard: Group Story (2016) HDTV [H.264 / 1080i-LQ] торрент скачать бесплатно


    Def Leppard: История группы / Def Leppard: Group Story (2016) HDTV [H.264 / 1080i-LQ] торрент скачать бесплатно

    Дата: 24-12-2018, 05:00 | .torrent скачали: 5

    Def Leppard: История группы / Def Leppard: Group Story (2016) HDTV [H.264 / 1080i-LQ]Производство: Великобритания, Sky UK Limited
    Жанр: Документальный, музыка, история
    Режиссер: Кристофер Уолкер

    Описание

    Вокалист AC/DC Брайан Джонсон едет в Дублин — город, ставший вторым домом для фронтмена британской группы Def Leppard Джо Эллиотта. Джо приглашает Брайана в свой любимый паб, где они дегустируют собственную марку пива Эллиотта и делятся жизненными историями.
    Продолжительность: 00: 44: 00
    Качество видео: HDTV
    Перевод: Одноголосый закадровый, профессиональный
    Субтитры: отсутствуют
    Видео: AVC/H.264, 1920x1080, ~7575 Kbps
    Аудио#1: AC3, 6 ch, 384 Kbps | Русский
    Аудио#2: MP2, 2 ch, 192 Kbps | Русский

    Общее
    Идентификатор : 1 (0x1)
    Полное имя : F: КИНОПервый канал HD - _DEF LEPPARD.ts
    Формат : MPEG-TS
    Размер файла : 2, 64 Гбайт
    Продолжительность : 44 м. 0 с.
    Режим общего битрейта : Переменный
    Общий поток : 8581 Кбит/сек
    Видео
    Идентификатор : 205 (0xCD)
    Идентификатор меню : 20105 (0x4E89)
    Формат : AVC
    Формат/Информация : Advanced Video Codec
    Профиль формата : High@L4
    Настройки формата : CABAC/4 Ref Frames
    Параметр CABAC формата : Да
    Параметр RefFrames формата : 4 кадра
    Идентификатор кодека : 27
    Продолжительность : 44 м. 0 с.
    Битрейт : 7575 Кбит/сек
    Ширина : 1920 пикселей
    Высота : 1080 пикселей
    Соотношение сторон : 16: 9
    Частота кадров : 25, 000 кадров/сек
    Стандарт вещания : Component
    Цветовое пространство : YUV
    Субдискретизация насыщенности : 4: 2: 0
    Битовая глубина : 8 бит
    Тип развёртки : Чересстрочная
    Метод сохранения типа развёртки : Раздельные поля
    Порядок развёртки : Верхнее поле первое
    Бит/(Пиксели*Кадры) : 0.146
    Размер потока : 2, 33 Гбайт (88%)
    Цветовой диапазон : Limited
    Основные цвета : BT.709
    Характеристики трансфера : BT.709
    Коэффициенты матрицы : BT.709
    Аудио #1
    Идентификатор : 305 (0x131)
    Идентификатор меню : 20105 (0x4E89)
    Формат : AC-3
    Формат/Информация : Audio Coding 3
    Коммерческое название : Dolby Digital
    Идентификатор кодека : 6
    Продолжительность : 44 м. 0 с.
    Вид битрейта : Постоянный
    Битрейт : 384 Кбит/сек
    Каналы : 6 каналов
    Channel layout : L R C LFE Ls Rs
    Частота : 48, 0 КГц
    Частота кадров : 31, 250 кадров/сек (1536 SPF)
    Битовая глубина : 16 бит
    Метод сжатия : С потерями
    Задержка видео : -120 мс.
    Размер потока : 121 Мбайт (4%)
    Язык : Russian
    ServiceKind/String : Complete Main
    Аудио #2
    Идентификатор : 306 (0x132)
    Идентификатор меню : 20105 (0x4E89)
    Формат : MPEG Audio
    Версия формата : Version 1
    Профиль формата : Layer 2
    Идентификатор кодека : 3
    Продолжительность : 44 м. 0 с.
    Вид битрейта : Постоянный
    Битрейт : 192 Кбит/сек
    Каналы : 2 канала
    Частота : 48, 0 КГц
    Частота кадров : 41, 667 кадра/сек (1152 SPF)
    Метод сжатия : С потерями
    Задержка видео : -120 мс.
    Размер потока : 60, 4 Мбайт (2%)
    Язык : Russian
    Текст
    Идентификатор : 307 (0x133)-888
    Идентификатор меню : 20105 (0x4E89)
    Формат : Teletext Subtitle
    Язык : Russian
    Язык, дополнительно : For hearing impaired people
    Прочее
    Идентификатор : 307 (0x133)-100
    Идентификатор меню : 20105 (0x4E89)
    Формат : Teletext
    Язык : Russian

    Скриншоты для ознакомления



    Все одноименные релизы в Клубе
    Время раздачи: с 18: 00 до 23: 00 (до появления первых 3-5 скачавших)


    Def Leppard: История группы/Def Leppard: Group Story (2016) HDTV [H.264/1080i-LQ]
    Рейтинг →
     (голосов: 1, оценка 5/5, голосовать можно 1 раз )

    Другие торренты по теме:

  • Def Leppard - Def Leppard (2015) [FLAC|tracks|WEB-DL]<Hard Rock> скачать через торрент бесплатно
  • Def Leppard - Def Leppard (2015) [MP3|320 кб / с]<Hard Rock> скачать через торрент бесплатно
  • Def Leppard - Def Leppard (2015) Limited Edition Fanpack [FLAC|image + .cue] <Hard Rock> скачать через торрент бесплатно
  • Def Leppard - Def Leppard (2015) Japanese Edition [FLAC|image + .cue]<Hard Rock> скачать через торрент бесплатно
  • Def Leppard - The Story So Far: The Best Of Def Leppard (2018) Deluxe Edition [FLAC|Lossless|WEB-DL|tracks] <Rock>
  • Def Leppard - Pyromania (1983) [FLAC 2.0 24 / 192] image + .cue (Vinyl-Rip) <Hard Rock> скачать через торрент бесплатно
  • Def Leppard - HighNDry 1981 (1984) Vertigo [FLAC 2.0|192 / 24|image+cue|Vinyl-Rip] <Rock>
  • Def Leppard - On Through The Night (1980) Vertigo [FLAC 2.0|192 / 24|image+cue|Vinyl-Rip] <Rock>


    • Комментарии (0):

      Информация

      Информация

        Посетители, находящиеся в группе Гости, не могут оставлять комментарии в данной новости.

        ↓ Меню




        ↓ Опрос

        Вы добавили сайт в закладки?
        Да
        Нет


        Top 10 за месяц (Передачи)