.
Авторизация | Регистрация
Хочешь лучшие торренты? Добавь свой email!
Добавить

Торрент скачать бесплатно

  • support: webmaster@btracker.club
» » Битва экстрасенсов (2018.12.15) HDTV [H.264 / 1080p-LQ] (сезон 19, выпуск 13) торрент скачать бесплатно


    Битва экстрасенсов (2018.12.15) HDTV [H.264 / 1080p-LQ] (сезон 19, выпуск 13) торрент скачать бесплатно

    Опубликовал: fregat | Дата: 24-12-2018, 05:00 | .torrent скачали: 0

    Битва экстрасенсов (2018.12.15) HDTV [H.264 / 1080p-LQ] (сезон 19, выпуск 13)Телекомпания: ТНТ
    Жанр: ТВ-шоу
    Ведущий: Марат Башаров

    Описание

    Все люди делятся на две категории: те, кто верит в существование потустороннего мира и те, кто всячески отрицает проявление всего экстраординарного. Но данный проект за много лет доказал всем скептикам, что среди нас действительно живут люди с уникальными способностями. Им под силу не только общение с миром духов, но и гораздо большее, от чего волосы встают дыбом. Настал черед испытать очередных претендентов на звание сильнейшего экстрасенса. Как всегда участникам проекта придется доказывать свою силу перед убежденными скептиками - братьями Сафроновыми. Им предстоит пройти уникальные испытания, которые в новом сезон любимого сериалае будут еще сложнее...
    Продолжительность: 01: 09: 49
    Качество видео: HDTV
    Субтитры: отсутствуют
    Видео: AVC/H.264, 1920x1080, ~7100 Kbps
    Аудио: AC3, 2 ch, 192 Kbps

    Общее
    Уникальный идентификатор : 235723406478925472055423022749143276926 (0xB156AD3D1163E78BAC78E125D1141D7E)
    Полное имя : K: Bitva ekstrasensov S19.2018.HDTV 1080p.RG GeneralFilmBitva ekstrasensov.s19.e13.2018.HDTV 1080pDM.mkv
    Формат : Matroska
    Версия формата : Version 4
    Размер файла : 3, 56 Гбайт
    Продолжительность : 1 ч. 9 м.
    Общий поток : 7291 Кбит/сек
    Дата кодирования : UTC 2018-12-23 20: 44: 54
    Программа кодирования : mkvmerge v7.3.0 (\'Nouages\') 64bit built on Oct 22 2014 18: 53: 34
    Библиотека кодирования : libebml v1.3.0 + libmatroska v1.4.1/Lavf57.71.100
    ENCODING_INFO : MATROSKA, WEBM MKV 1080p/H264 X264 VBR-2P 7100kbps HQ/AC3 AC3 CBR 192kbps
    Видео
    Идентификатор : 1
    Формат : AVC
    Формат/Информация : Advanced Video Codec
    Профиль формата : High@L4.1
    Настройки формата : CABAC/4 Ref Frames
    Параметр CABAC формата : Да
    Параметр RefFrames формата : 4 кадра
    Идентификатор кодека : V_MPEG4/ISO/AVC
    Продолжительность : 1 ч. 9 м.
    Битрейт : 7100 Кбит/сек
    Ширина : 1920 пикселей
    Высота : 1080 пикселей
    Соотношение сторон : 16: 9
    Режим частоты кадров : Постоянный
    Частота кадров : 25, 000 кадров/сек
    Цветовое пространство : YUV
    Субдискретизация насыщенности : 4: 2: 0
    Битовая глубина : 8 бит
    Тип развёртки : Прогрессивная
    Бит/(Пиксели*Кадры) : 0.137
    Размер потока : 3, 46 Гбайт (97%)
    Библиотека кодирования : x264 core 157 r2935M 545de2f
    Настройки программы : cabac=1/ref=4/deblock=1: -3: -3/analyse=0x3: 0/me=umh/subme=9/psy=1/psy_rd=1.00: 0.20/mixed_ref=1/me_range=25/chroma_me=1/trellis=1/8x8dct=1/cqm=0/deadzone=21, 11/fast_pskip=1/chroma_qp_offset=-3/threads=9/lookahead_threads=1/sliced_threads=0/nr=0/decimate=1/interlaced=0/bluray_compat=0/constrained_intra=0/bframes=6/b_pyramid=2/b_adapt=2/b_bias=0/direct=3/weightb=1/open_gop=0/weightp=2/keyint=250/keyint_min=25/scenecut=40/intra_refresh=0/rc_lookahead=40/rc=2pass/mbtree=1/bitrate=7100/ratetol=1.0/qcomp=0.60/qpmin=0/qpmax=69/qpstep=4/cplxblur=20.0/qblur=0.5/ip_ratio=1.40/aq=1: 1.00
    Default : Нет
    Forced : Нет
    Цветовой диапазон : Limited
    Основные цвета : BT.709
    Характеристики трансфера : BT.709
    Коэффициенты матрицы : BT.709
    Аудио
    Идентификатор : 2
    Формат : AC-3
    Формат/Информация : Audio Coding 3
    Коммерческое название : Dolby Digital
    Идентификатор кодека : A_AC3
    Продолжительность : 1 ч. 9 м.
    Вид битрейта : Постоянный
    Битрейт : 192 Кбит/сек
    Каналы : 2 канала
    Channel layout : L R
    Частота : 44, 1 КГц
    Частота кадров : 28, 711 кадров/сек (1536 SPF)
    Битовая глубина : 16 бит
    Метод сжатия : С потерями
    Размер потока : 95, 9 Мбайт (3%)
    ServiceKind/String : Complete Main
    Default : Нет
    Forced : Нет

    Скриншоты для ознакомления



    Все одноименные релизы в Клубе
    Время раздачи: с 17: 00 до 01: 00 (до появления первых 3-5 скачавших)


    Битва экстрасенсов (2018.12.15) HDTV [H.264/1080p-LQ] (сезон 19, выпуск 13)
    Рейтинг →
     (голосов: 1, оценка 4/5, голосовать можно 1 раз )

    Другие торренты по теме:

  • Битва экстрасенсов (2018.12.29) HDTV [H.264 / 1080p-LQ] (сезон 19, выпуск 15)
  • Битва экстрасенсов. Украина (сезон 14, выпуск 1) / Битва екстрасенсів (2014) SATRip [RUS / UKR] скачать через торрент бесплатно
  • Битва экстрасенсов. Украина (сезон 14, выпуск 1-3 из 13) / Битва екстрасенсів (2014) SATRip [UKR / RUS] [обновляемая]
  • Битва экстрасенсов. Сезон №15. Выпуск №2 (2014) SATRip
  • Битва экстрасенсов. Сезон №15. Выпуск №2 (2014) WEB-DL [H.264 / 720p]
  • Битва экстрасенсов. Сезон №15. Выпуск №3 (2014) SATRip скачать через торрент бесплатно
  • Битва экстрасенсов. Сезон №15. Выпуск №4 (2014) WEB-DLRip скачать через торрент бесплатно
  • Битва экстрасенсов. Сезон №15. Выпуск №4 (2014) WEB-DL [H.264 / 720p] скачать через торрент бесплатно


    • Комментарии (0):

      Информация

      Информация

        Посетители, находящиеся в группе Гости, не могут оставлять комментарии в данной новости.

        ↓ Меню




        ↓ Опрос

        Вы добавили сайт в закладки?
        Да
        Нет


        Top 10 за месяц (Передачи)