.
Авторизация | Регистрация
Хочешь лучшие торренты? Добавь свой email!
Добавить

Торрент скачать бесплатно

  • support: webmaster@btracker.club
» » Мамонты - гиганты ледникового периода / Mammoths. Giants of the Ace (2014) HDTVRip торрент скачать бесплатно


    Мамонты - гиганты ледникового периода / Mammoths. Giants of the Ace (2014) HDTVRip торрент скачать бесплатно

    Опубликовал: fregat | Дата: 24-12-2018, 05:00 | .torrent скачали: 2

    Мамонты - гиганты ледникового периода / Mammoths. Giants of the Ace (2014) HDTVRipПроизводство: Германия, Smithsonian Channel, ZDF
    Жанр: Документальный, археология

    Описание

    Отправляйтесь назад во времени с самым знаменитым экспертом по мамонтам Диком Молом. Вы побываете в эпохе, когда наши предки жили вместе с огромной популяцией мамонтов. Около двух миллионов лет назад начался Ледниковый период, и этим животным пришлось адаптироваться к новому климату. В этом документальном фильме мы узнаем удивительную историю мамонтов от их появления в Намибии до вымирания спустя 3700 лет. С помощью разных ученых Мол отправляет зрителей в путешествие сквозь миллионы лет. Он побывает на Северном море в поисках окаменелостей, а также найдёт идеально сохранившиеся кости мамонта в Канаде. Всё это - ради того, чтобы рассказать историю самых поразительных животных, населявших Землю.
    Релиз от: рип Zakol
    Продолжительность: 00: 45: 57
    Качество видео: HDTVRip
    Перевод: Одноголосый закадровый, профессиональный
    Субтитры: отсутствуют
    Видео: XviD, 720x400, ~1800 Kbps
    Аудио: AC3, 2 ch, 128 Kbps

    Общее
    Полное имя : F: КИНОМамонты 1400M (2014).avi
    Формат : AVI
    Формат/Информация : Audio Video Interleave
    Размер файла : 637 Мбайт
    Продолжительность : 45 м. 57 с.
    Общий поток : 1939 Кбит/сек
    Программа кодирования : Lavf57.71.100
    Видео
    Идентификатор : 0
    Формат : MPEG-4 Visual
    Профиль формата : Advanced Simple@L5
    Настройки формата : BVOP1
    Параметр BVOP формата : 1
    Параметр QPel формата : Нет
    Параметр GMC формата : Без точки перехода
    Параметр матрицы формата : Default (H.263)
    Идентификатор кодека : XVID
    Идентификатор кодека/Подсказка : XviD
    Продолжительность : 45 м. 57 с.
    Битрейт : 1800 Кбит/сек
    Ширина : 720 пикселей
    Высота : 400 пикселей
    Соотношение сторон : 16: 9
    Частота кадров : 25, 000 кадров/сек
    Цветовое пространство : YUV
    Субдискретизация насыщенности : 4: 2: 0
    Битовая глубина : 8 бит
    Тип развёртки : Прогрессивная
    Метод сжатия : С потерями
    Бит/(Пиксели*Кадры) : 0.250
    Размер потока : 592 Мбайт (93%)
    Библиотека кодирования : XviD 67
    Аудио
    Идентификатор : 1
    Формат : AC-3
    Формат/Информация : Audio Coding 3
    Коммерческое название : Dolby Digital
    Идентификатор кодека : 2000
    Продолжительность : 45 м. 57 с.
    Вид битрейта : Постоянный
    Битрейт : 128 Кбит/сек
    Каналы : 2 канала
    Channel layout : L R
    Частота : 48, 0 КГц
    Частота кадров : 31, 250 кадров/сек (1536 SPF)
    Битовая глубина : 16 бит
    Метод сжатия : С потерями
    Размер потока : 42, 1 Мбайт (7%)
    Выравнивание : Соединение по промежуткам
    Продолжительность промежутка : 32 мс. (0, 80 видеокадр)
    ServiceKind/String : Complete Main

    Скриншоты для ознакомления



    Все одноименные релизы в Клубе
    Время раздачи: с 18: 00 до 23: 00 (до появления первых 3-5 скачавших)


    Мамонты - гиганты ледникового периода/Mammoths. Giants of the Ace (2014) HDTVRip
    Рейтинг →
     (голосов: 1, оценка 4/5, голосовать можно 1 раз )

    Другие торренты по теме:

  • Мамонты. Гиганты ледникового периода / Mammoths: Giants of the Ice Age (2014) HDTVRip [H.264 / 720p-LQ]


    • Комментарии (0):

      Информация

      Информация

        Посетители, находящиеся в группе Гости, не могут оставлять комментарии в данной новости.

        ↓ Меню




        ↓ Опрос

        Вы добавили сайт в закладки?
        Да
        Нет


        Top 10 за месяц (Передачи)