.
Авторизация | Регистрация
Хочешь лучшие торренты? Добавь свой email!
Добавить

Торрент скачать бесплатно

  • support: webmaster@btracker.club
» » Голос. Перезагрузка (2018.12.21) HDTV [H.264 / 1080i-LQ] (сезон 7, выпуск 11) торрент скачать бесплатно


    Голос. Перезагрузка (2018.12.21) HDTV [H.264 / 1080i-LQ] (сезон 7, выпуск 11) торрент скачать бесплатно

    Опубликовал: fregat | Дата: 23-12-2018, 05:00 | .torrent скачали: 4

    Голос. Перезагрузка (2018.12.21) HDTV [H.264 / 1080i-LQ] (сезон 7, выпуск 11)Телекомпания: Первый канал HD
    Жанр: ТВ-шоу
    Наставники: Константин Меладзе, Сергей Шнуров, Ани Лорак, Баста
    Ведущий: Дмитрий Нагиев

    Описание

    Один из самых ярких шоу-проектов в очередной раз продемонстрирует невероятные результаты от альянса обладателей незаурядных голосов и опытных наставников, позволяющих талантам раскрыться и расцвести. Великолепные голоса, уникальные музыкальные постановки, молодые и не очень участники, которым придется испытать радость творчества, счастье триумфа и слезы поражения – все это в полной мере представлено в новом сезон любимого сериалае Голоса - проекта, дающего каждому желающему уникальный шанс проявить себя в вокальном творчестве.
    Релиз от: GeneralFilm, olegka7373
    Продолжительность: 01: 32: 40
    Качество видео: HDTV
    Субтитры: отсутствуют
    Видео: AVC/H.264, 1920x1080, ~7919 Kbps
    Аудио: AC3, 6 ch, 384 Kbps
    Аудио: MP2, 2 ch, 192 Kbps

    Общее
    Идентификатор : 1 (0x1)
    Полное имя : K: Golos-7. Perezagruzka.HDTV(1080i).GeneralFilm11.Golos-7. Perezagruzka.HDTV(1080i).GeneralFilm.ts
    Формат : MPEG-TS
    Размер файла : 5, 79 Гбайт
    Продолжительность : 1 ч. 32 м.
    Режим общего битрейта : Переменный
    Общий поток : 8943 Кбит/сек
    Видео
    Идентификатор : 2931 (0xB73)
    Идентификатор меню : 1079 (0x437)
    Формат : AVC
    Формат/Информация : Advanced Video Codec
    Профиль формата : High@L4
    Настройки формата : CABAC/4 Ref Frames
    Параметр CABAC формата : Да
    Параметр RefFrames формата : 4 кадра
    Идентификатор кодека : 27
    Продолжительность : 1 ч. 32 м.
    Битрейт : 7919 Кбит/сек
    Ширина : 1920 пикселей
    Высота : 1080 пикселей
    Соотношение сторон : 16: 9
    Частота кадров : 25, 000 кадров/сек
    Цветовое пространство : YUV
    Субдискретизация насыщенности : 4: 2: 0
    Битовая глубина : 8 бит
    Тип развёртки : MBAFF
    Метод сохранения типа развёртки : Чередующиеся поля
    Порядок развёртки : Верхнее поле первое
    Бит/(Пиксели*Кадры) : 0.153
    Размер потока : 5, 13 Гбайт (89%)
    Аудио #1
    Идентификатор : 2904 (0xB58)
    Идентификатор меню : 1079 (0x437)
    Формат : AC-3
    Формат/Информация : Audio Coding 3
    Коммерческое название : Dolby Digital
    Идентификатор кодека : 6
    Продолжительность : 1 ч. 32 м.
    Вид битрейта : Постоянный
    Битрейт : 384 Кбит/сек
    Каналы : 6 каналов
    Channel layout : L R C LFE Ls Rs
    Частота : 48, 0 КГц
    Частота кадров : 31, 250 кадров/сек (1536 SPF)
    Битовая глубина : 16 бит
    Метод сжатия : С потерями
    Задержка видео : -200 мс.
    Размер потока : 255 Мбайт (4%)
    Язык : Russian
    ServiceKind/String : Complete Main
    Аудио #2
    Идентификатор : 2905 (0xB59)
    Идентификатор меню : 1079 (0x437)
    Формат : MPEG Audio
    Версия формата : Version 1
    Профиль формата : Layer 2
    Настройки формата : Joint stereo/Intensity Stereo + MS Stereo
    Идентификатор кодека : 3
    Продолжительность : 1 ч. 32 м.
    Вид битрейта : Постоянный
    Битрейт : 192 Кбит/сек
    Каналы : 2 канала
    Частота : 48, 0 КГц
    Частота кадров : 41, 667 кадра/сек (1152 SPF)
    Метод сжатия : С потерями
    Задержка видео : -200 мс.
    Размер потока : 127 Мбайт (2%)
    Язык : Russian

    Скриншоты для ознакомления



    Все одноименные релизы в Клубе
    Время раздачи: с 17: 00 до 01: 00 (до появления первых 3-5 скачавших)


    Голос. Перезагрузка (2018.12.21) HDTV [H.264/1080i-LQ] (сезон 7, выпуск 11)
    Рейтинг →
     (голосов: 1, оценка 5/5, голосовать можно 1 раз )

    Другие торренты по теме:

  • Голос. Перезагрузка (2018.11.02) HDTV [H.264 / 1080i-LQ] (сезон 7, выпуск 4)
  • Голос. Перезагрузка (2018.10.26) HDTV [H.264 / 1080i-LQ] (сезон 7, выпуск 3)
  • Голос. Перезагрузка (2018.10.19) HDTV [H.264 / 1080i-LQ] (сезон 7, выпуск 2)
  • Голос. Перезагрузка (2018.10.12) HDTV [H.264 / 1080i-LQ] (сезон 7, выпуск 1)
  • Голос. Перезагрузка (2018.11.09) HDTV [H.264 / 1080i-LQ] (сезон 7, выпуск 5)
  • Голос. Перезагрузка (2018.11.16) HDTV [H.264 / 1080i-LQ] (сезон 7, выпуск 6)
  • Голос. Перезагрузка (2018.11.23) HDTV [H.264 / 1080i-LQ] (сезон 7, выпуск 7)
  • Голос. Перезагрузка (2018) HDTV [H.264 / 720p-LQ] (сезон 7, выпуски 1-7) [обновляемая]


    • Комментарии (0):

      Информация

      Информация

        Посетители, находящиеся в группе Гости, не могут оставлять комментарии в данной новости.

        ↓ Меню




        ↓ Опрос

        Вы добавили сайт в закладки?
        Да
        Нет


        Top 10 за месяц (Передачи)