.
Авторизация | Регистрация

Торрент скачать бесплатно

  • support: webmaster@btracker.club
» » Мата Хари: куртизанка, шпионка или жертва / Mata Hari: The Naked Spy (2017) SATRip торрент скачать бесплатно


    Мата Хари: куртизанка, шпионка или жертва / Mata Hari: The Naked Spy (2017) SATRip торрент скачать бесплатно

    Дата: 23-12-2018, 05:00 | .torrent скачали: 2

    Мата Хари: куртизанка, шпионка или жертва / Mata Hari: The Naked Spy (2017) SATRipПроизводство: США, Red Spoke Films, LLC
    Жанр: Документальный, биография, история
    Режиссер: Майкл Аморисон, Сьюзен Вульф

    Описание

    На протяжении ста лет о ней пишут и снимают фильмы. И у каждого автора - своя Мата Хари. Она была сильной женщиной, которая жила своей жизнью. Уже тогда она была свободной женщиной, защищала ценности, которые в наши дни никто не оспаривает, например, равноправие. И в то же время Мата Хари была загадкой. Её образ можно интерпретировать как угодно, в зависимости от того, что мы хотим в ней увидеть. Она была матерью и женой, а также стриптизёршей, танцовщицей, актрисой и шпионкой. Важное послание Маты Хари заключается в идее о том, что человек не обязательно должен подчиняться тем условиям, в которых родился. Ты можешь сам выбирать себе биографию и судьбу. Можешь следовать за своей мечтой и стать тем, кем хочешь. Мата Хари - женщина, которая добилась успеха своими силами.

    Релиз от: alf62
    Продолжительность: 00: 49: 55
    Качество видео: SATRip
    Перевод: Двуголосый закадровый, профессиональный (Студия СВ-Дубль)
    Видео: Xvid, 720x400, ~1800 Kbps
    Аудио: AC3, 2 ch, 192 Kbps

    Общее
    Полное имя : D: ЗаписьМата ХариМата.Хари.2017.XviD.SATRip.alf62.avi
    Формат : AVI
    Формат/Информация : Audio Video Interleave
    Размер файла : 715 Мбайт
    Продолжительность : 49 м.
    Общий поток : 2003 Кбит/сек
    Программа кодирования : VirtualDubMod 1.5.10.3 |www.virtualdub-fr.org|| (build 2550/release)
    Библиотека кодирования : VirtualDubMod build 2550/release
    Видео
    Идентификатор : 0
    Формат : MPEG-4 Visual
    Профиль формата : Advanced Simple@L5
    Параметр BVOP формата : 2
    Параметр QPel формата : Нет
    Параметр GMC формата : Без точки перехода
    Параметр матрицы формата : Default (MPEG)
    Идентификатор кодека : XVID
    Идентификатор кодека/Подсказка : XviD
    Продолжительность : 49 м.
    Битрейт : 1801 Кбит/сек
    Ширина : 720 пикселей
    Высота : 400 пикселей
    Соотношение сторон : 16: 9
    Частота кадров : 25, 000 кадров/сек
    Цветовое пространство : YUV
    Субдискретизация насыщенности : 4: 2: 0
    Битовая глубина : 8 бит
    Тип развёртки : Прогрессивная
    Метод сжатия : С потерями
    Бит/(Пиксели*Кадры) : 0.250
    Размер потока : 643 Мбайт (90%)
    Библиотека кодирования : XviD 73
    Аудио
    Идентификатор : 1
    Формат : AC-3
    Формат/Информация : Audio Coding 3
    Расширение режима : CM (complete main)
    Параметр Endianness формата : Big
    Идентификатор кодека : 2000
    Продолжительность : 49 м.
    Вид битрейта : Постоянный
    Битрейт : 192 Кбит/сек
    Каналы : 2 канала
    Расположение каналов : Front: L R
    Частота : 48, 0 КГц
    Частота кадров : 31, 250 кадров/сек (1536 spf)
    Метод сжатия : С потерями
    Размер потока : 68, 6 Мбайт (10%)
    Выравнивание : Разделение по промежуткам
    Продолжительность промежутка : 40 мс. (1, 00 видеокадр)
    Время предзагрузки промежутка : 500 мс.

    Скриншоты для ознакомления






    Все одноименные релизы в Клубе
    Время раздачи: до появления первых 3-5 скачавших


    Мата Хари: куртизанка, шпионка или жертва/Mata Hari: The Naked Spy (2017) SATRip
    Рейтинг →
     (голосов: 1, оценка 3/5, голосовать можно 1 раз )

    Другие торренты по теме:

  • Пауло Коэльо | Мата Хари. Шпионка (2016) [FB2]
  • Пауло Коэльо | Мата Хари. Шпионка (2016) [MP3]
  • Борис Соколов | Мата Хари. Авантюристка или шпионка (2017) [FB2]
  • Мата Хари (2016) HDTV [H.264 / 1080i-LQ] (серии 1-2 из 12) (обновляемая)
  • Мата Хари (2016) WEB-DL [H.264 / 720p-LQ] (серии 1-4 из 12) (обновляемая)
  • Мата Хари (2016) SATRip [H.264] (серии 1-8 из 12) (обновляемая)
  • Мата Хари (2016) HDTVRip (серии 1-12 из 12)
  • Мата Хари. Шпионка, которую предали (2017) HDTVRip [H264 / 720p-LQ]


    • Комментарии (0):

      Информация

      Информация

        Посетители, находящиеся в группе Гости, не могут оставлять комментарии в данной новости.

        ↓ Меню




        ↓ Опрос

        Вы добавили сайт в закладки?
        Да
        Нет


        Top 10 за месяц (Передачи)