.
Авторизация | Регистрация
Хочешь лучшие торренты? Добавь свой email!
Добавить

Торрент скачать бесплатно

  • support: webmaster@btracker.club
» » Discovery. Мастера оружия / Mad Dog Made (2018) HDTVRip (cерии 1-3 из 6) (Обновляемая) торрент скачать бесплатно


    Discovery. Мастера оружия / Mad Dog Made (2018) HDTVRip (cерии 1-3 из 6) (Обновляемая) торрент скачать бесплатно

    Опубликовал: fregat | Дата: 23-12-2018, 05:00 | .torrent скачали: 3

    Discovery. Мастера оружия / Mad Dog Made (2018) HDTVRip (cерии 1-3 из 6) (Обновляемая)Производство: США, Discovery Channel
    Жанр: Документальный, оружие
    Продюсер: Марина Харрисон

    Описание

    Когда спецслужбам, морской пехоте, военным, полицейским, пожарным или выживальщикам требуется нестандартное, сделанное по индивидуальному заказу оружие или инструмент, они обращаются к Кевину Макклангу по прозвищу Бешеный Пёс и его команде. Он способен создать буквально всё: меч, нож, взрывное устройство, топор, снайперскую винтовку или что-то более замысловатое. По просьбе работника службы спасения из Юты мастера делают Открывалку – легкий гидравлический аварийно-спасательный инструмент под названием Челюсти жизни. Его используют для освобождения людей из автомобилей при ДТП. А для экипировки миссии на Марс космонавт NASA просит Кевина разработать инструмент, с которым можно работать в скафандре. С помощью дочери Морган и подмастерья Джейкоба наш оружейник исполнит даже самый нестандартный заказ!
    Релиз от: GeneralFilm
    Продолжительность: серии x ~00: 44: 00
    Качество видео: HDTVRip
    Перевод: Двуголосый закадровый, профессиональный
    Субтитры: отсутствуют
    Видео: XviD, 720x400, ~1600 Kbps
    Аудио: AC3, 2 ch, 192 Kbps

    Общее
    Полное имя : F: КИНОМастера оружия GeneralFilm2 Мастера оружия GeneralFilm.avi
    Формат : AVI
    Формат/Информация : Audio Video Interleave
    Размер файла : 566 Мбайт
    Продолжительность : 43 м. 56 с.
    Общий поток : 1802 Кбит/сек
    Программа кодирования : VirtualDubMod 1.5.10.3 |www.virtualdub-fr.org|| (build 2550/release)
    Библиотека кодирования : VirtualDubMod build 2550/release
    Видео
    Идентификатор : 0
    Формат : MPEG-4 Visual
    Профиль формата : Advanced Simple@L5
    Настройки формата : BVOP1/Custom Matrix
    Параметр BVOP формата : 1
    Параметр QPel формата : Нет
    Параметр GMC формата : Без точки перехода
    Параметр матрицы формата : Выборочная
    Идентификатор кодека : XVID
    Идентификатор кодека/Подсказка : XviD
    Продолжительность : 43 м. 56 с.
    Битрейт : 1600 Кбит/сек
    Ширина : 720 пикселей
    Высота : 400 пикселей
    Соотношение сторон : 16: 9
    Частота кадров : 25, 000 кадров/сек
    Цветовое пространство : YUV
    Субдискретизация насыщенности : 4: 2: 0
    Битовая глубина : 8 бит
    Тип развёртки : Прогрессивная
    Метод сжатия : С потерями
    Бит/(Пиксели*Кадры) : 0.222
    Размер потока : 503 Мбайт (89%)
    Библиотека кодирования : XviD 73
    Аудио
    Идентификатор : 1
    Формат : AC-3
    Формат/Информация : Audio Coding 3
    Коммерческое название : Dolby Digital
    Идентификатор кодека : 2000
    Продолжительность : 43 м. 56 с.
    Вид битрейта : Постоянный
    Битрейт : 192 Кбит/сек
    Каналы : 2 канала
    Channel layout : L R
    Частота : 48, 0 КГц
    Частота кадров : 31, 250 кадров/сек (1536 SPF)
    Битовая глубина : 16 бит
    Метод сжатия : С потерями
    Размер потока : 60, 3 Мбайт (11%)
    Выравнивание : Разделение по промежуткам
    Продолжительность промежутка : 40 мс. (1, 00 видеокадр)
    Время предзагрузки промежутка : 500 мс.
    ServiceKind/String : Complete Main


    Discovery. Мастера оружия/Mad Dog Made (2018) HDTVRip (cерии 1-3 из 6) (Обновляемая)
    Рейтинг →
     (голосов: 1, оценка 5/5, голосовать можно 1 раз )

    Другие торренты по теме:

  • Discovery. Как работают машины / Machines: How They Work (2016) HDTV [H.264 / 1080i-LQ] (10 серий из 10)
  • Discovery. Сканируя небо: телескоп Discovery Channel / Scanning the skies: the Discovery Channel telescope (2012) HDTVRip [H.264 / 720p]
  • Discovery Science: Сканируя небо: телескоп Discovery Channel / Scanning the skies: the Discovery Channel telescope (2012) WEBRip скачать через торрент бесплатно
  • Discovery Science: Существа внутри нас / Discovery Science: Creatures Inside Us (2010) SATRip
  • Discovery: Восстание машин (серии 1-2) / Discovery: Rise of the Machines (2014) SATRip
  • Discovery: Секреты и Заговоры / Discovery: Codes and Conspiracies (2014) SATRip (сезон 1 серии 1-6 из 6) скачать через торрент бесплатно
  • Discovery: Разрушители легенд. Специальный выпуск: видеоигры / MythBusters. Video Games Special (2015) SATRip (Сезон 15, эпизод 04) [Discovery] скачать через торрент бесплатно
  • Discovery: Разрушители легенд. Трансформеры / MythBusters. Transformers (2015) SATRip (Сезон 15, эпизод 05) [Discovery] скачать через торрент бесплатно


    • Комментарии (0):

      Информация

      Информация

        Посетители, находящиеся в группе Гости, не могут оставлять комментарии в данной новости.

        ↓ Меню




        ↓ Опрос

        Вы добавили сайт в закладки?
        Да
        Нет


        Top 10 за месяц (Передачи)