.
Авторизация | Регистрация
Хочешь лучшие торренты? Добавь свой email!
Добавить

Торрент скачать бесплатно

  • support: webmaster@btracker.club
» » Дэвид Аттенборо. Загадки природы (Капризы природы с Дэвидом Аттенборо) / David Attenboroughs. Natural Curiosities (2013) WEB-DL [H.264 / 1080p] (Сезон 2, серии 10 из 10) торрент скачать бесплатно


    Дэвид Аттенборо. Загадки природы (Капризы природы с Дэвидом Аттенборо) / David Attenboroughs. Natural Curiosities (2013) WEB-DL [H.264 / 1080p] (Сезон 2, серии 10 из 10) торрент скачать бесплатно

    Опубликовал: fregat | Дата: 1-11-2018, 05:00 | .torrent скачали: 0

    Дэвид Аттенборо. Загадки природы (Капризы природы с Дэвидом Аттенборо) / David Attenboroughs. Natural Curiosities (2013) WEB-DL [H.264 / 1080p] (Сезон 2, серии 10 из 10)Производство: Великобритания, A humble bee films, Eden
    Жанр: Документальный, природа, флора, фауна
    Режиссер: Хилари Джеффкинс, Шармила Чадхури

    Описание

    Мир полон удивительных существ. Природа некоторых из них кажется невероятной. Отдельные животные своей необычной биологией привлекают особое внимание. Какие-то из них известны уже несколько веков, другие обнаружены совсем недавно. В этой программе сэр Дэвид Аттенборо расскажет, почему они считаются загадками природы.

    Релиз от: DaVinci (Nature)
    Продолжительность: 10 x ~00: 22: 00
    Качество видео: WEB-DL
    Перевод: Одноголосый закадровый, профессиональный (SDI Media)
    Субтитры: отсутствуют
    Видео: AVC/H.264, 1920x1080, ~12, 0 Mbps
    Аудио#1: AC3, 2 ch, 192 Kbps | Русский
    Аудио#2: E-AC3, 2 ch, 224 Kbps | Английский

    Общее
    Уникальный идентификатор : 253935711019204387169663941384065040223 (0xBF0A3D2DCD021AC4B26665B41DC4BF5F)
    Полное имя : F: КИНОDavid.Attenboroughs.Natural.Curiosities.S02.(2013).1080p.WEB-DL.Rus.Eng-BLUEBIRDS02E05.Bad.Reputations.Rus.Eng-BLUEBIRD.mkv
    Формат : Matroska
    Версия формата : Version 4
    Размер файла : 1, 91 Гбайт
    Продолжительность : 22 м. 0 с.
    Режим общего битрейта : Переменный
    Общий поток : 12, 4 Мбит/сек
    Дата кодирования : UTC 2018-09-29 08: 22: 48
    Программа кодирования : mkvmerge v8.0.0 ('Til The Day That I Die') 32bit
    Библиотека кодирования : libebml v1.3.1 + libmatroska v1.4.2
    Видео
    Идентификатор : 1
    Формат : AVC
    Формат/Информация : Advanced Video Codec
    Профиль формата : High@L4
    Настройки формата : CABAC/4 Ref Frames
    Параметр CABAC формата : Да
    Параметр RefFrames формата : 4 кадра
    Идентификатор кодека : V_MPEG4/ISO/AVC
    Продолжительность : 22 м. 0 с.
    Вид битрейта : Переменный
    Битрейт : 12, 0 Мбит/сек
    Максимальный битрейт : 15, 0 Мбит/сек
    Ширина : 1920 пикселей
    Высота : 1080 пикселей
    Соотношение сторон : 16: 9
    Режим частоты кадров : Постоянный
    Частота кадров : 25, 000 кадров/сек
    Цветовое пространство : YUV
    Субдискретизация насыщенности : 4: 2: 0
    Битовая глубина : 8 бит
    Тип развёртки : Прогрессивная
    Бит/(Пиксели*Кадры) : 0.232
    Размер потока : 1, 85 Гбайт (97%)
    Библиотека кодирования : x264 core 148 r2623 d5b2374
    Настройки программы : cabac=1/ref=4/deblock=1: -1: -1/analyse=0x3: 0x133/me=umh/subme=9/psy=1/psy_rd=1.00: 0.15/mixed_ref=1/me_range=24/chroma_me=1/trellis=2/8x8dct=1/cqm=0/deadzone=21, 11/fast_pskip=1/chroma_qp_offset=-3/threads=34/lookahead_threads=5/sliced_threads=0/nr=150/decimate=1/interlaced=0/bluray_compat=0/constrained_intra=0/bframes=8/b_pyramid=2/b_adapt=2/b_bias=0/direct=3/weightb=1/open_gop=0/weightp=2/keyint=125/keyint_min=63/scenecut=0/intra_refresh=0/rc_lookahead=125/rc=crf/mbtree=1/crf=18.0/qcomp=0.60/qpmin=0/qpmax=69/qpstep=4/vbv_maxrate=15000/vbv_bufsize=31250/crf_max=0.0/nal_hrd=vbr/filler=0/ip_ratio=1.40/aq=3: 1.00
    Default : Да
    Forced : Нет
    Цветовой диапазон : Limited
    Основные цвета : BT.709
    Характеристики трансфера : BT.709
    Коэффициенты матрицы : BT.709
    Аудио #1
    Идентификатор : 2
    Формат : AC-3
    Формат/Информация : Audio Coding 3
    Коммерческое название : Dolby Digital
    Идентификатор кодека : A_AC3
    Продолжительность : 22 м. 0 с.
    Вид битрейта : Постоянный
    Битрейт : 192 Кбит/сек
    Каналы : 2 канала
    Channel layout : L R
    Частота : 48, 0 КГц
    Частота кадров : 31, 250 кадров/сек (1536 SPF)
    Битовая глубина : 16 бит
    Метод сжатия : С потерями
    Размер потока : 30, 2 Мбайт (2%)
    Заголовок : rus SDI-Media AC3 2.0
    Язык : Russian
    ServiceKind/String : Complete Main
    Default : Да
    Forced : Да
    Аудио #2
    Идентификатор : 3
    Формат : E-AC-3
    Формат/Информация : Enhanced AC-3
    Коммерческое название : Dolby Digital Plus
    Идентификатор кодека : A_EAC3
    Продолжительность : 22 м. 0 с.
    Вид битрейта : Постоянный
    Битрейт : 224 Кбит/сек
    Каналы : 2 канала
    Channel layout : L R
    Частота : 48, 0 КГц
    Частота кадров : 31, 250 кадров/сек (1536 SPF)
    Метод сжатия : С потерями
    Размер потока : 35, 3 Мбайт (2%)
    Заголовок : eng E-AC3 2.0
    Язык : English
    ServiceKind/String : Complete Main
    Default : Нет
    Forced : Нет


    Дэвид Аттенборо. Загадки природы (Капризы природы с Дэвидом Аттенборо)/David Attenboroughs. Natural Curiosities (2013) WEB-DL [H.264/1080p] (Сезон 2, серии 10 из 10)
    Рейтинг →
     (голосов: 1, оценка 3/5, голосовать можно 1 раз )

    Другие торренты по теме:

  • Дэвид Аттенборо. Курьезы природного мира (Капризы природы с Дэвидом Аттенборо) / David Attenboroughs. Natural Curiosities (2012) WEB-DL [H.264 / 1080p] (Сезон 1, серии 5 из 5)
  • Дэвид Аттенборо: Дикий город / David Attenboroughs: Wild City (2015) HDTVRip [H.264 / 720p-LQ] (серии 1-2 из 3)
  • Дэвид Аттенборо. Курьезы природного мира (Загадки природы) / David Attenboroughs. Natural Curiosities (2014-2015) HDTVRip [H.264 / 720p-LQ] (Сезон 2, 3, серия 16 из 16)


    • Комментарии (0):

      Информация

      Информация

        Посетители, находящиеся в группе Гости, не могут оставлять комментарии в данной новости.

        ↓ Меню




        ↓ Опрос

        Вы добавили сайт в закладки?
        Да
        Нет


        Top 10 за месяц (Передачи)

        Революция. Западня для России (2017) HDTVRip [H.264 / 720p-LQ] (фильм 1)

        (скачиваний: 75)
        Осторожно, Задов! Или похождения прапорщика (2004) DVDRip [H.264] (29 серий из 29)

        (скачиваний: 49)
        Мир наизнанку Бразилия / Світ навиворіт (2018) WEB-DLRip [H.264 / 1080p-LQ] (Сезон 10, серии 1-2 из ... ) Обновляемая

        (скачиваний: 35)
        Революция. Западня для России (2018) (Сезон 2, Серия 1 из 2) DVB [H.264 / 1080i-LQ] (Обновляемая)

        (скачиваний: 30)
        Гай Юлий Орловский | Цикл «Юджин - повелитель времени» [9 книг. Обновляемая] (2015-2017) [FB2]

        (скачиваний: 29)
        Александр Мазин | Вождь викингов (2016) [MP3]

        (скачиваний: 27)
        Уральские пельмени. 50 оттенков загорелого (2017.10.27) WEB-DL [H.264 / 720p-LQ]

        (скачиваний: 22)
        Футбол. Лига Европы УЕФА 2018-2019. Группа G. 3-й тур. Рейнджерс (Шотландия) – Спартак (Россия) (25.10.2018) WEB-DL [H.264 / 720p-LQ]

        (скачиваний: 21)
        Queen: Дни нашей жизни / Queen: Days of Our Lives (2011) DVB (Серии 1-2 из 2)

        (скачиваний: 21)
        6 Кадров (2006-2015) SATRip / WEBRip (сезоны 1-8, выпуски 1-321 из) + Дополнения

        (скачиваний: 19)