.
Авторизация | Регистрация
Хочешь лучшие торренты? Добавь свой email!
Добавить

Торрент скачать бесплатно

  • support: webmaster@btracker.club
» » Советские хиппи / Noukogude hipid (2017) HDTVRip [H.264 / 1080p-LQ] торрент скачать бесплатно


    Советские хиппи / Noukogude hipid (2017) HDTVRip [H.264 / 1080p-LQ] торрент скачать бесплатно

    Опубликовал: fregat | Дата: 1-11-2018, 05:00 | .torrent скачали: 0

    Советские хиппи / Noukogude hipid (2017) HDTVRip [H.264 / 1080p-LQ]Производство: Эстония, Германия, Финляндия, Mouka Filmi Oy
    Жанр: Документальный, история, драма
    Режиссер: Терье Тоомисту
    Участники: Терье Тоомисту

    Описание

    Избиения в милиции, бритье голов, уголовные сроки и многое другое, через что прошли хиппи в СССР. Советская пропаганда в 70-е заявляла, что знак пацифик – версия свастики, а хиппи – фашистская группировка. Дети цветов совершают путешествие по полному психоделии советскому андерграунду 1970-х годов, когда проникшиеся свободным духом рок-музыки длинноволосые молодые люди создали в противовес царившему тогда режиму свою Систему, в которой боролись за мир и свободу. Десятилетия спустя группа хиппи направилась в Москву, где до сих пор 1 июня отмечается День детей цветов. 1 июня, в Международный день защиты детей, в 1971 году, хиппи собрались во внутреннем дворе бывшего исторического факультета МГУ, чтобы пройти с демонстрацией к посольству США с антивоенными лозунгами.

    Продолжительность: 01: 15: 43
    Качество видео: HDTVRip
    Перевод: Одноголосый закадровый, профессиональный
    Субтитры: отсутствуют
    Видео: AVC/H.264, 1920x1080, ~3100 Kbps
    Аудио: AAC, 2 ch, 132 Kbps

    Общее
    Уникальный идентификатор : 59700633567863497325017119469015577591 (0x2CE9EC7D6AF52C7F7A42DD818AFEB3F7)
    Полное имя : F: КИНОСоветские хиппи.mkv
    Формат : Matroska
    Версия формата : Version 4
    Размер файла : 1, 69 Гбайт
    Продолжительность : 1 ч. 14 м.
    Общий поток : 3223 Кбит/сек
    Дата кодирования : UTC 2018-10-31 13: 56: 09
    Программа кодирования : mkvmerge v28.1.0 ('Morning Child') 64-bit
    Библиотека кодирования : libebml v1.3.6 + libmatroska v1.4.9
    Видео
    Идентификатор : 1
    Формат : AVC
    Формат/Информация : Advanced Video Codec
    Профиль формата : High@L5
    Настройки формата : CABAC/5 Ref Frames
    Параметр CABAC формата : Да
    Параметр RefFrames формата : 5 кадров
    Идентификатор кодека : V_MPEG4/ISO/AVC
    Продолжительность : 1 ч. 14 м.
    Битрейт : 3091 Кбит/сек
    Ширина : 1920 пикселей
    Высота : 1080 пикселей
    Соотношение сторон : 16: 9
    Режим частоты кадров : Постоянный
    Частота кадров : 25, 000 кадров/сек
    Цветовое пространство : YUV
    Субдискретизация насыщенности : 4: 2: 0
    Битовая глубина : 8 бит
    Тип развёртки : Прогрессивная
    Бит/(Пиксели*Кадры) : 0.060
    Размер потока : 1, 62 Гбайт (96%)
    Библиотека кодирования : x264 core 152 r2851 ba24899
    Настройки программы : cabac=1/ref=5/deblock=1: 0: 0/analyse=0x3: 0x113/me=hex/subme=6/psy=1/psy_rd=1.00: 0.00/mixed_ref=1/me_range=16/chroma_me=1/trellis=1/8x8dct=1/cqm=0/deadzone=21, 11/fast_pskip=1/chroma_qp_offset=-2/threads=34/lookahead_threads=5/sliced_threads=0/nr=0/decimate=1/interlaced=0/bluray_compat=0/constrained_intra=0/bframes=3/b_pyramid=2/b_adapt=1/b_bias=0/direct=1/weightb=1/open_gop=0/weightp=1/keyint=100/keyint_min=51/scenecut=0/intra_refresh=0/rc_lookahead=30/rc=crf/mbtree=1/crf=22.0/qcomp=0.60/qpmin=0/qpmax=69/qpstep=4/vbv_maxrate=4000/vbv_bufsize=3500/crf_max=0.0/nal_hrd=none/filler=0/ip_ratio=1.40/aq=1: 1.00
    Default : Да
    Forced : Нет
    Аудио
    Идентификатор : 2
    Формат : AAC LC
    Формат/Информация : Advanced Audio Codec Low Complexity
    Идентификатор кодека : A_AAC-2
    Продолжительность : 1 ч. 14 м.
    Битрейт : 132 Кбит/сек
    Каналы : 2 канала
    Channel layout : L R
    Частота : 44, 1 КГц
    Частота кадров : 43, 066 кадра/сек (1024 SPF)
    Метод сжатия : С потерями
    Задержка видео : -80 мс.
    Размер потока : 69, 7 Мбайт (4%)
    Default : Да
    Forced : Нет

    Скриншоты для ознакомления




    Все одноименные релизы в Клубе
    Время раздачи: с 18: 00 до 23: 00 (до появления первых 3-5 скачавших)


    Советские хиппи/Noukogude hipid (2017) HDTVRip [H.264/1080p-LQ]
    Рейтинг →
     (голосов: 1, оценка 3/5, голосовать можно 1 раз )

    Другие торренты по теме:

  • Советские военные карты PRO 2.5.0 (13.06.2014) <Ru>
  • Советские мафии. Бриллиантовое дело (2014.10.22) SATRip скачать через торрент бесплатно
  • Советские мафии. Банда Монгола (2014.12.10) SATRip
  • Советские мафии. Продать звезду (2014.11.26) SATRip
  • Советские мафии (2014) SATRip (1-6 выпуск) скачать через торрент бесплатно
  • Советские мафии. Волшебники Изумрудного города (2014.12.17) SATRip скачать через торрент бесплатно
  • Советские мафии. Оборотни в погонах (2014.12.25) SATRip
  • Сделано в СССР. Советские клоуны (2014) WEBRip


    • Комментарии (0):

      Информация

      Информация

        Посетители, находящиеся в группе Гости, не могут оставлять комментарии в данной новости.

        ↓ Меню




        ↓ Опрос

        Вы добавили сайт в закладки?
        Да
        Нет


        Top 10 за месяц (Передачи)

        Революция. Западня для России (2017) HDTVRip [H.264 / 720p-LQ] (фильм 1)

        (скачиваний: 75)
        Осторожно, Задов! Или похождения прапорщика (2004) DVDRip [H.264] (29 серий из 29)

        (скачиваний: 49)
        Мир наизнанку Бразилия / Світ навиворіт (2018) WEB-DLRip [H.264 / 1080p-LQ] (Сезон 10, серии 1-2 из ... ) Обновляемая

        (скачиваний: 35)
        Революция. Западня для России (2018) (Сезон 2, Серия 1 из 2) DVB [H.264 / 1080i-LQ] (Обновляемая)

        (скачиваний: 30)
        Гай Юлий Орловский | Цикл «Юджин - повелитель времени» [9 книг. Обновляемая] (2015-2017) [FB2]

        (скачиваний: 29)
        Александр Мазин | Вождь викингов (2016) [MP3]

        (скачиваний: 27)
        Уральские пельмени. 50 оттенков загорелого (2017.10.27) WEB-DL [H.264 / 720p-LQ]

        (скачиваний: 22)
        Футбол. Лига Европы УЕФА 2018-2019. Группа G. 3-й тур. Рейнджерс (Шотландия) – Спартак (Россия) (25.10.2018) WEB-DL [H.264 / 720p-LQ]

        (скачиваний: 21)
        Queen: Дни нашей жизни / Queen: Days of Our Lives (2011) DVB (Серии 1-2 из 2)

        (скачиваний: 21)
        6 Кадров (2006-2015) SATRip / WEBRip (сезоны 1-8, выпуски 1-321 из) + Дополнения

        (скачиваний: 19)