.
Авторизация | Регистрация
Хочешь лучшие торренты? Добавь свой email!
Добавить

Торрент скачать бесплатно

  • support: webmaster@btracker.club
» » NGW: Остров муссонов. Паутина жизни / Island of the Monsoon. Web of life (2018) HDTV [H.264 / 1080i-LQ] торрент скачать бесплатно


    NGW: Остров муссонов. Паутина жизни / Island of the Monsoon. Web of life (2018) HDTV [H.264 / 1080i-LQ] торрент скачать бесплатно

    Опубликовал: fregat | Дата: 1-11-2018, 05:00 | .torrent скачали: 0

    NGW: Остров муссонов. Паутина жизни / Island of the Monsoon. Web of life (2018) HDTV [H.264 / 1080i-LQ]Производство: Великобритания, Blue Ant Media Solutions Inc., Nat Geo Wild
    Жанр: Документальный, природа, флора, фауна
    Продюсер: Марта Холмс, Джеймс Смит

    Описание

    Этот сериал посвящен удивительному миру дикой природы чарующего острова Шри Ланка - этого мира, заполненного экстримом. От влажных, насыщенных водными испарениями джунглей на юге, до выжженной сухой восточной части, этот небольшой остров - словно мозаика из различных сред обитания и микроклиматов.
    Релиз от: Zakol
    Продолжительность: 00: 43: 51
    Качество видео: HDTV
    Перевод: Одноголосый закадровый, профессиональный (Велес)
    Субтитры: отсутствуют
    Видео: AVC/H.264, 1920x1080, ~6500 Kbps
    Аудио#1: MP2, 2 ch, 192 Kbps | Русский (текст читал: Дмитрий Стрелков)
    Аудио#2: MP2, 2 ch, 192 Kbps | Английский

    Общее
    Идентификатор : 1 (0x1)
    Полное имя : F: КИНООстров муссонов. Паут. жизни 1080 (2018).ts
    Формат : MPEG-TS
    Размер файла : 2, 21 Гбайт
    Продолжительность : 43 м. 51 с.
    Режим общего битрейта : Переменный
    Общий поток : 7198 Кбит/сек
    Видео
    Идентификатор : 1154 (0x482)
    Идентификатор меню : 135 (0x87)
    Формат : AVC
    Формат/Информация : Advanced Video Codec
    Профиль формата : Main@L4
    Настройки формата : CABAC/2 Ref Frames
    Параметр CABAC формата : Да
    Параметр RefFrames формата : 2 кадра
    Параметр GOP формата : M=3, N=32
    Идентификатор кодека : 27
    Продолжительность : 43 м. 51 с.
    Вид битрейта : Постоянный
    Битрейт : 6500 Кбит/сек
    Ширина : 1920 пикселей
    Высота : 1080 пикселей
    Соотношение сторон : 16: 9
    Частота кадров : 25, 000 кадров/сек
    Цветовое пространство : YUV
    Субдискретизация насыщенности : 4: 2: 0
    Битовая глубина : 8 бит
    Тип развёртки : Чересстрочная
    Метод сохранения типа развёртки : Раздельные поля
    Порядок развёртки : Верхнее поле первое
    Бит/(Пиксели*Кадры) : 0.125
    Размер потока : 1, 98 Гбайт (90%)
    Аудио #1
    Идентификатор : 1155 (0x483)
    Идентификатор меню : 135 (0x87)
    Формат : MPEG Audio
    Версия формата : Version 1
    Профиль формата : Layer 2
    Идентификатор кодека : 3
    Продолжительность : 43 м. 51 с.
    Вид битрейта : Постоянный
    Битрейт : 192 Кбит/сек
    Каналы : 2 канала
    Частота : 48, 0 КГц
    Частота кадров : 41, 667 кадра/сек (1152 SPF)
    Метод сжатия : С потерями
    Размер потока : 60, 2 Мбайт (3%)
    Язык : Russian
    Аудио #2
    Идентификатор : 1156 (0x484)
    Идентификатор меню : 135 (0x87)
    Формат : MPEG Audio
    Версия формата : Version 1
    Профиль формата : Layer 2
    Идентификатор кодека : 3
    Продолжительность : 43 м. 51 с.
    Вид битрейта : Постоянный
    Битрейт : 192 Кбит/сек
    Каналы : 2 канала
    Частота : 48, 0 КГц
    Частота кадров : 41, 667 кадра/сек (1152 SPF)
    Метод сжатия : С потерями
    Размер потока : 60, 2 Мбайт (3%)
    Язык : English


    NGW: Остров муссонов. Паутина жизни/Island of the Monsoon. Web of life (2018) HDTV [H.264/1080i-LQ]
    Рейтинг →
     (голосов: 1, оценка 3/5, голосовать можно 1 раз )

    Другие торренты по теме:

  • NGW: Остров муссонов. Королева Яла / Island of the Monsoon (2018) HDTV [H.264 / 1080i-LQ]
  • NGW: Остров муссонов. Слоненок Лока / Island of the Monsoon. Loka The Baby Elephant (2018) HDTV [H.264 / 1080i-LQ]
  • NGW: Остров муссонов. Озерные охотники / Island of the Monsoon. Lake hunters (2018) HDTV [H.264 / 1080i-LQ]


    • Комментарии (0):

      Информация

      Информация

        Посетители, находящиеся в группе Гости, не могут оставлять комментарии в данной новости.

        ↓ Меню




        ↓ Опрос

        Вы добавили сайт в закладки?
        Да
        Нет


        Top 10 за месяц (Передачи)

        Революция. Западня для России (2017) HDTVRip [H.264 / 720p-LQ] (фильм 1)

        (скачиваний: 75)
        Осторожно, Задов! Или похождения прапорщика (2004) DVDRip [H.264] (29 серий из 29)

        (скачиваний: 49)
        Мир наизнанку Бразилия / Світ навиворіт (2018) WEB-DLRip [H.264 / 1080p-LQ] (Сезон 10, серии 1-2 из ... ) Обновляемая

        (скачиваний: 35)
        Революция. Западня для России (2018) (Сезон 2, Серия 1 из 2) DVB [H.264 / 1080i-LQ] (Обновляемая)

        (скачиваний: 30)
        Гай Юлий Орловский | Цикл «Юджин - повелитель времени» [9 книг. Обновляемая] (2015-2017) [FB2]

        (скачиваний: 27)
        Александр Мазин | Вождь викингов (2016) [MP3]

        (скачиваний: 27)
        Queen: Дни нашей жизни / Queen: Days of Our Lives (2011) DVB (Серии 1-2 из 2)

        (скачиваний: 21)
        Футбол. Лига Европы УЕФА 2018-2019. Группа G. 3-й тур. Рейнджерс (Шотландия) – Спартак (Россия) (25.10.2018) WEB-DL [H.264 / 720p-LQ]

        (скачиваний: 21)
        6 Кадров (2006-2015) SATRip / WEBRip (сезоны 1-8, выпуски 1-321 из) + Дополнения

        (скачиваний: 17)
        Орел и решка. Морской сезон. По морям 2 (2018) WEB-DLRip (сезон 18, выпуск 1-3 из 20) (обновляемая)

        (скачиваний: 16)