.
Авторизация | Регистрация
Хочешь лучшие торренты? Добавь свой email!
Добавить

Торрент скачать бесплатно

  • support: webmaster@btracker.club
» » NG: Архитекторы древности / Architects of the Ancient World (2018) DVB торрент скачать бесплатно


    NG: Архитекторы древности / Architects of the Ancient World (2018) DVB торрент скачать бесплатно

    Опубликовал: fregat | Дата: 1-11-2018, 05:00 | .torrent скачали: 4

    NG: Архитекторы древности / Architects of the Ancient World (2018) DVBПроизводство: США, National Geographic
    Жанр: Документальный, история, исследование

    Описание

    Во все времена архитектура служила людям для того, чтобы продемонстрировать мощь и влияние хозяина здания. Но здания также хранят свои тайны. Иногда бессознательно, а иногда по замыслу архитекторов целые города были построены так, чтобы сделать их как бы невидимыми для жадных глаз иноземцев. Почему древние люди наполняли загадками свои наиболее значительные сооружения, и как современные ученые учатся раскрывать эти тайны?
    Релиз от: Zakol
    Продолжительность: 00: 44: 00
    Качество видео: DVB
    Перевод: Одноголосый закадровый, профессиональный
    Субтитры: отсутствуют
    Видео: MPEG-2, 720х576@1024x576, ~3250 Kbps
    Аудио#1: MP2, 2 ch, 192 Kbps | Русский
    Аудио#2: MP2, 2 ch, 192 Kbps | Английский

    Общее
    Идентификатор : 1 (0x1)
    Полное имя : F: КИНОАрхитекторы древности DVB (2018).ts
    Формат : MPEG-TS
    Размер файла : 1, 18 Гбайт
    Продолжительность : 43 м. 58 с.
    Режим общего битрейта : Переменный
    Общий поток : 3829 Кбит/сек
    Видео
    Идентификатор : 274 (0x112)
    Идентификатор меню : 25 (0x19)
    Формат : MPEG Video
    Версия формата : Version 2
    Профиль формата : Main@Main
    Настройки формата : CustomMatrix
    Параметр BVOP формата : Нет
    Параметр матрицы формата : Выборочная
    Параметр GOP формата : N=33
    Структура изображения : Frame
    Идентификатор кодека : 2
    Продолжительность : 43 м. 58 с.
    Вид битрейта : Переменный
    Битрейт : 3252 Кбит/сек
    Максимальный битрейт : 3300 Кбит/сек
    Ширина : 720 пикселей
    Высота : 576 пикселей
    Соотношение сторон : 16: 9
    Частота кадров : 25, 000 кадров/сек
    Стандарт вещания : PAL
    Цветовое пространство : YUV
    Субдискретизация насыщенности : 4: 2: 0
    Битовая глубина : 8 бит
    Тип развёртки : Чересстрочная
    Порядок развёртки : Верхнее поле первое
    Метод сжатия : С потерями
    Бит/(Пиксели*Кадры) : 0.314
    Временной код первого кадра : 00: 00: 00: 00
    Оригинал временного кода : Group of pictures t_head
    GOP, открыто/закрыто : Закрыто
    Размер потока : 1023 Мбайт (85%)
    Аудио #1
    Идентификатор : 275 (0x113)
    Идентификатор меню : 25 (0x19)
    Формат : MPEG Audio
    Версия формата : Version 1
    Профиль формата : Layer 2
    Идентификатор кодека : 3
    Продолжительность : 43 м. 58 с.
    Вид битрейта : Постоянный
    Битрейт : 192 Кбит/сек
    Каналы : 2 канала
    Частота : 48, 0 КГц
    Частота кадров : 41, 667 кадра/сек (1152 SPF)
    Метод сжатия : С потерями
    Задержка видео : 18 мс.
    Размер потока : 60, 4 Мбайт (5%)
    Язык : Russian
    Аудио #2
    Идентификатор : 276 (0x114)
    Идентификатор меню : 25 (0x19)
    Формат : MPEG Audio
    Версия формата : Version 1
    Профиль формата : Layer 2
    Идентификатор кодека : 3
    Продолжительность : 43 м. 58 с.
    Вид битрейта : Постоянный
    Битрейт : 192 Кбит/сек
    Каналы : 2 канала
    Частота : 48, 0 КГц
    Частота кадров : 41, 667 кадра/сек (1152 SPF)
    Метод сжатия : С потерями
    Задержка видео : 18 мс.
    Размер потока : 60, 4 Мбайт (5%)
    Язык : English

    Скриншоты для ознакомления




    Все одноименные релизы в Клубе
    Время раздачи: с 18: 00 до 23: 00 (до появления первых 3-5 скачавших)


    NG: Архитекторы древности/Architects of the Ancient World (2018) DVB
    Рейтинг →
     (голосов: 1, оценка 3/5, голосовать можно 1 раз )

    Другие торренты по теме:

  • Журнал | ADD. Архитекторы, дизайнеры, декораторы. Приложение к журналу Жилая среда. Выпуск №5 (2016) [PDF]
  • Журнал | ADD. Архитекторы, дизайнеры, декораторы. Приложение к журналу Жилая среда. Выпуск №6 (2017) [PDF]
  • Журнал | ADD. Архитекторы, дизайнеры, декораторы. Приложение к журналу Жилая среда (декабрь 2017) [PDF]
  • Журнал | ADD. Архитекторы, дизайнеры, декораторы. Приложение к журналу Жилая среда (декабрь 2018) [PDF]
  • NGW: Дикие места Африки. Величайшие архитекторы природы / Africas Wild Side (2018) HDTV [H.264 / 1080i-LQ]


    • Комментарии (0):

      Информация

      Информация

        Посетители, находящиеся в группе Гости, не могут оставлять комментарии в данной новости.

        ↓ Меню




        ↓ Опрос

        Вы добавили сайт в закладки?
        Да
        Нет


        Top 10 за месяц (Передачи)