.
Авторизация | Регистрация
Хочешь лучшие торренты? Добавь свой email!
Добавить

Торрент скачать бесплатно

  • support: webmaster@btracker.club
» » NG: Мегасооружения: музей Лувр Абу Даби / Megastructures. Louvre Abu Dhabi (2017) DVB торрент скачать бесплатно


    NG: Мегасооружения: музей Лувр Абу Даби / Megastructures. Louvre Abu Dhabi (2017) DVB торрент скачать бесплатно

    Опубликовал: fregat | Дата: 1-11-2018, 05:00 | .torrent скачали: 0

    NG: Мегасооружения: музей Лувр Абу Даби / Megastructures. Louvre Abu Dhabi (2017) DVBПроизводство: Новая Зеландия, NHNZ Ltd, National Geographic Channel
    Жанр: Документальный, исследование
    Режиссер: Патрик Ладуэтет

    Описание

    Расположившийся на берегу Персидского Залива художественный музей Лувр Абу-Даби, спроектированный архитектором с мировым именем Жаном Нувелем, построен по ассоциации с парижским Лувром и является хранилищем почти 400 шедевров мировой живописи. Массивный стальной купол весом почти в 7000 тонн, прикрывающий залы музея - настоящее чудо инженерной мысли, аналогов которому нет нигде в мире. Лувр Абу Даби - это фантастический пример архитектуры, опережающей свое время, по мнению многих, является сам по себе настоящим произведением искусства.

    Релиз от: Zakol
    Продолжительность: 00: 43: 58
    Качество видео: DVB
    Перевод: Одноголосый закадровый, профессиональный (Велес)
    Субтитры: отсутствуют
    Видео: MPEG-2, 720х576@1024x576, ~3250 Kbps
    Аудио#1: MP2, 2 ch, 192 Kbps | Русский (текст читает: Вадим Прохоров)
    Аудио#2: MP2, 2 ch, 192 Kbps | Английский

    Общее
    Идентификатор : 1 (0x1)
    Полное имя : F: КИНОМегасооружения. муз. Лувр Абу Даби DVB (2017).ts
    Формат : MPEG-TS
    Размер файла : 1, 18 Гбайт
    Продолжительность : 43 м. 58 с.
    Режим общего битрейта : Переменный
    Общий поток : 3828 Кбит/сек
    Видео
    Идентификатор : 274 (0x112)
    Идентификатор меню : 25 (0x19)
    Формат : MPEG Video
    Версия формата : Version 2
    Профиль формата : Main@Main
    Настройки формата : CustomMatrix
    Параметр BVOP формата : Нет
    Параметр матрицы формата : Выборочная
    Параметр GOP формата : N=33
    Структура изображения : Frame
    Идентификатор кодека : 2
    Продолжительность : 43 м. 58 с.
    Вид битрейта : Переменный
    Битрейт : 3251 Кбит/сек
    Максимальный битрейт : 3300 Кбит/сек
    Ширина : 720 пикселей
    Высота : 576 пикселей
    Соотношение сторон : 16: 9
    Частота кадров : 25, 000 кадров/сек
    Стандарт вещания : PAL
    Цветовое пространство : YUV
    Субдискретизация насыщенности : 4: 2: 0
    Битовая глубина : 8 бит
    Тип развёртки : Чересстрочная
    Порядок развёртки : Верхнее поле первое
    Метод сжатия : С потерями
    Бит/(Пиксели*Кадры) : 0.314
    Временной код первого кадра : 00: 00: 00: 00
    Оригинал временного кода : Group of pictures t_head
    GOP, открыто/закрыто : Закрыто
    Размер потока : 1023 Мбайт (85%)
    Аудио #1
    Идентификатор : 275 (0x113)
    Идентификатор меню : 25 (0x19)
    Формат : MPEG Audio
    Версия формата : Version 1
    Профиль формата : Layer 2
    Идентификатор кодека : 3
    Продолжительность : 43 м. 58 с.
    Вид битрейта : Постоянный
    Битрейт : 192 Кбит/сек
    Каналы : 2 канала
    Частота : 48, 0 КГц
    Частота кадров : 41, 667 кадра/сек (1152 SPF)
    Метод сжатия : С потерями
    Задержка видео : 2 мс.
    Размер потока : 60, 4 Мбайт (5%)
    Язык : Russian
    Аудио #2
    Идентификатор : 276 (0x114)
    Идентификатор меню : 25 (0x19)
    Формат : MPEG Audio
    Версия формата : Version 1
    Профиль формата : Layer 2
    Идентификатор кодека : 3
    Продолжительность : 43 м. 58 с.
    Вид битрейта : Постоянный
    Битрейт : 192 Кбит/сек
    Каналы : 2 канала
    Частота : 48, 0 КГц
    Частота кадров : 41, 667 кадра/сек (1152 SPF)
    Метод сжатия : С потерями
    Задержка видео : 2 мс.
    Размер потока : 60, 4 Мбайт (5%)
    Язык : English

    Скриншоты для ознакомления



    Все одноименные релизы в Клубе
    Время раздачи: с 18: 00 до 23: 00 (до появления первых 3-5 скачавших)


    NG: Мегасооружения: музей Лувр Абу Даби/Megastructures. Louvre Abu Dhabi (2017) DVB
    Рейтинг →
     (голосов: 1, оценка 5/5, голосовать можно 1 раз )

    Другие торренты по теме:

  • Корабли Гитлера. Мегасооружения нацистов. Бисмарк и Тирпиц / Nazi Mega Weapons Hitlers Megaships (2015) HDTVRip [H.264 / 720p-LQ]


    • Комментарии (0):

      Информация

      Информация

        Посетители, находящиеся в группе Гости, не могут оставлять комментарии в данной новости.

        ↓ Меню




        ↓ Опрос

        Вы добавили сайт в закладки?
        Да
        Нет


        Top 10 за месяц (Передачи)

        Революция. Западня для России (2017) HDTVRip [H.264 / 720p-LQ] (фильм 1)

        (скачиваний: 75)
        Осторожно, Задов! Или похождения прапорщика (2004) DVDRip [H.264] (29 серий из 29)

        (скачиваний: 49)
        Мир наизнанку Бразилия / Світ навиворіт (2018) WEB-DLRip [H.264 / 1080p-LQ] (Сезон 10, серии 1-2 из ... ) Обновляемая

        (скачиваний: 35)
        Революция. Западня для России (2018) (Сезон 2, Серия 1 из 2) DVB [H.264 / 1080i-LQ] (Обновляемая)

        (скачиваний: 30)
        Гай Юлий Орловский | Цикл «Юджин - повелитель времени» [9 книг. Обновляемая] (2015-2017) [FB2]

        (скачиваний: 28)
        Александр Мазин | Вождь викингов (2016) [MP3]

        (скачиваний: 27)
        Уральские пельмени. 50 оттенков загорелого (2017.10.27) WEB-DL [H.264 / 720p-LQ]

        (скачиваний: 22)
        Футбол. Лига Европы УЕФА 2018-2019. Группа G. 3-й тур. Рейнджерс (Шотландия) – Спартак (Россия) (25.10.2018) WEB-DL [H.264 / 720p-LQ]

        (скачиваний: 21)
        Queen: Дни нашей жизни / Queen: Days of Our Lives (2011) DVB (Серии 1-2 из 2)

        (скачиваний: 21)
        6 Кадров (2006-2015) SATRip / WEBRip (сезоны 1-8, выпуски 1-321 из) + Дополнения

        (скачиваний: 17)