.
Авторизация | Регистрация
Хочешь лучшие торренты? Добавь свой email!
Добавить

Торрент скачать бесплатно

  • support: webmaster@btracker.club
» » Фигурное катание. Гран-при 2018-2019. 1-й Этап. Skate America 2018. Эверетт (США). Показательные выступления (21.10.2018) WEB-DL [H.264 / 720p-LQ] торрент скачать бесплатно


    Фигурное катание. Гран-при 2018-2019. 1-й Этап. Skate America 2018. Эверетт (США). Показательные выступления (21.10.2018) WEB-DL [H.264 / 720p-LQ] торрент скачать бесплатно

    Опубликовал: fregat | Дата: 31-10-2018, 05:00 | .torrent скачали: 2

    Фигурное катание. Гран-при 2018-2019. 1-й Этап. Skate America 2018. Эверетт (США). Показательные выступления (21.10.2018) WEB-DL [H.264 / 720p-LQ]Телекомпания: Первый канал
    Жанр: Спорт, Шоу
    Комментаторы: Александр Гришин, Аделина Сотникова

    Описание
    22 октября 2018 года, понедельник. 04: 15 МСК
    Турнир Skate America 2018 — 1-й Этап Гран-при по фигурному катанию сезон любимого сериалаа 2018—2019.
    Показательные выступления
    Арена: Энджел оф зе Виндз (Эверетт, США)
    Продолжительность: 01: 42: 25
    Качество видео: WEB-DL
    Язык озвучки: Русский
    Субтитры: отсутствуют
    Видео: AVC/H.264, 1280x720 (16: 9), ~3796 Kbps
    Аудио: AAC, 2 ch, 48 kHz, 128 Kbps

    Общее
    Уникальный идентификатор : 83057977411163263271089977833628212866 (0x3E7C6273F13D9059E58EC8510F4D9E82)
    Полное имя : C: UsersADMINDownloadsVideoSportФигурное катаниеISU Figure Skating Grand Prix. Skate America 2018.1StISU GP Skate America 2018.Everett(USA). Day 3 (21.10.2018)ISU GP Skate America 2018.Everett(USA).3. Show performances (21.10.2018).mkv
    Формат : Matroska
    Версия формата : Version 4/Version 2
    Размер файла : 2, 81 Гбайт
    Продолжительность : 1 ч. 42 м.
    Общий поток : 3926 Кбит/сек
    Дата кодирования : UTC 2018-10-25 03: 51: 27
    Программа кодирования : mkvmerge v28.0.0 (\'Voice In My Head\') 32-bit
    Библиотека кодирования : libebml v1.3.6 + libmatroska v1.4.9
    Видео
    Идентификатор : 1
    Формат : AVC
    Формат/Информация : Advanced Video Codec
    Профиль формата : High@L3.1
    Настройки формата : CABAC/4 Ref Frames
    Параметр CABAC формата : Да
    Параметр RefFrames формата : 4 кадра
    Параметр GOP формата : M=1, N=50
    Идентификатор кодека : V_MPEG4/ISO/AVC
    Продолжительность : 1 ч. 42 м.
    Битрейт : 3796 Кбит/сек
    Ширина : 1280 пикселей
    Высота : 720 пикселей
    Соотношение сторон : 16: 9
    Режим частоты кадров : Постоянный
    Частота кадров : 25, 000 кадров/сек
    Цветовое пространство : YUV
    Субдискретизация насыщенности : 4: 2: 0
    Битовая глубина : 8 бит
    Тип развёртки : Прогрессивная
    Бит/(Пиксели*Кадры) : 0.165
    Размер потока : 2, 72 Гбайт (97%)
    Default : Да
    Forced : Нет
    Аудио
    Идентификатор : 2
    Формат : AAC
    Формат/Информация : Advanced Audio Codec
    Профиль формата : LC
    Идентификатор кодека : A_AAC-2
    Продолжительность : 1 ч. 42 м.
    Битрейт : 128 Кбит/сек
    Каналы : 2 канала
    Расположение каналов : Front: L R
    Частота : 48, 0 КГц
    Частота кадров : 46, 875 кадров/сек (1024 SPF)
    Метод сжатия : С потерями
    Размер потока : 93, 7 Мбайт (3%)
    Язык : Russian
    Default : Да
    Forced : Нет

    Скриншоты для ознакомления



    Все одноименные релизы в Клубе
    Время раздачи: 24/7 (около 1 месяца)


    Фигурное катание. Гран-при 2018-2019. 1-й Этап. Skate America 2018. Эверетт (США). Показательные выступления (21.10.2018) WEB-DL [H.264/720p-LQ]
    Рейтинг →
     (голосов: 1, оценка 5/5, голосовать можно 1 раз )

    Другие торренты по теме:

  • Фигурное катание. Чемпионат России 2015. Екатеринбург (Россия). Показательные выступления (27.12.2015) (2015) HDTVRip [H.264 / 720p-LQ] скачать через торрент бесплатно
  • Фигурное катание. Чемпионат России 2015. Екатеринбург (Россия). Женщины. Произвольная программа (26.12.2015) HDTVRip [H.264 / 720p-LQ] скачать через торрент бесплатно
  • Фигурное Катание. Чемпионат России 2015. Женщины. Короткая программа. (25.12.2015) HDTVRip [H.264 / 720p-LQ] скачать через торрент бесплатно
  • Фигурное катание. Чемпионат Европы 2016. Женщины. Короткая программа. (27.01.2016) HDTVRip [H.264 / 720p-LQ]
  • Фигурное катание. Чемпионат Европы 2016. Танцы. Короткая программа. (28.01.2016) HDTVRip [H.264 / 720p-LQ]
  • Фигурное катание. Чемпионат Европы 2016. Мужчины. Короткая программа. (27.01.2016) HDTVRip [H.264 / 720p-LQ]
  • Фигурное катание. Чемпионат Европы 2016. Мужчины. Произвольная программа. (28.01.2016) HDTVRip [H.264 / 720p-LQ]
  • Фигурное катание. Чемпионат Европы 2016. Пары. Короткая программа. (29.01.2016) HDTVRip [H.264 / 720p-LQ]


    • Комментарии (0):

      Информация

      Информация

        Посетители, находящиеся в группе Гости, не могут оставлять комментарии в данной новости.

        ↓ Меню




        ↓ Опрос

        Вы добавили сайт в закладки?
        Да
        Нет


        Top 10 за месяц (Передачи)