.
Авторизация | Регистрация
Хочешь лучшие торренты? Добавь свой email!
Добавить

Торрент скачать бесплатно

  • support: webmaster@btracker.club
» » Фигурное катание. Гран-при 2018-2019. 1-й Этап. Skate America 2018. Эверетт (США). 1-й День (19.10.2018) WEB-DL [H.264 / 1080p-LQ] торрент скачать бесплатно


    Фигурное катание. Гран-при 2018-2019. 1-й Этап. Skate America 2018. Эверетт (США). 1-й День (19.10.2018) WEB-DL [H.264 / 1080p-LQ] торрент скачать бесплатно

    Опубликовал: fregat | Дата: 31-10-2018, 05:00 | .torrent скачали: 1

    Фигурное катание. Гран-при 2018-2019. 1-й Этап. Skate America 2018. Эверетт (США). 1-й День (19.10.2018) WEB-DL [H.264 / 1080p-LQ]Телекомпания: Eurovision Sports
    Жанр: Спорт

    Описание

    Турнир Skate America 2018 — 1-й Этап Гран-при по фигурному катанию сезон любимого сериалаа 2018—2019.
    1-й День. Суббота, 20 октября 2018 года:
    05: 30 (мск) - Спортивные пары. Короткая программа
    07: 00 (мск) - Мужчины. Короткая программа
    Арена: Энджел оф зе Виндз (Эверетт, США)
    Продолжительность: 01: 11: 45 — 01: 37: 20
    Качество видео: WEB-DL
    Перевод: Не требуется, нет голосовых комментариев
    Язык озвучки: Интершум
    Субтитры: отсутствуют
    Видео: AVC/H.264, 1920x1080 (16: 9), ~3716 Kbps
    Аудио: AAC, 2 ch, 48 kHz, 128 Kbps

    Общее
    Уникальный идентификатор : 171004801646083147030994527741455473528 (0x80A653A9FA8C0D84F78697E983519B78)
    Полное имя : F: SPORTФигурное катаниеISU Figure Skating Grand Prix.Skate America 2018. 1StISU GP Skate America 2018.Everett(USA). Day 1_1080p1. Skate America 2018.Everett(USA). Pairs SP (19.10.2018).mkv
    Формат : Matroska
    Версия формата : Version 4/Version 2
    Размер файла : 1, 93 Гбайт
    Продолжительность : 1 ч. 11 м.
    Общий поток : 3846 Кбит/сек
    Дата кодирования : UTC 2018-10-23 14: 43: 31
    Программа кодирования : mkvmerge v28.0.0 (\'Voice In My Head\') 32-bit
    Библиотека кодирования : libebml v1.3.6 + libmatroska v1.4.9
    Видео
    Идентификатор : 1
    Формат : AVC
    Формат/Информация : Advanced Video Codec
    Профиль формата : High@L4.1
    Настройки формата : CABAC/4 Ref Frames
    Параметр CABAC формата : Да
    Параметр RefFrames формата : 4 кадра
    Идентификатор кодека : V_MPEG4/ISO/AVC
    Продолжительность : 1 ч. 11 м.
    Битрейт : 3716 Кбит/сек
    Ширина : 1920 пикселей
    Высота : 1080 пикселей
    Соотношение сторон : 16: 9
    Режим частоты кадров : Постоянный
    Частота кадров : 25, 000 кадров/сек
    Цветовое пространство : YUV
    Субдискретизация насыщенности : 4: 2: 0
    Битовая глубина : 8 бит
    Тип развёртки : Прогрессивная
    Бит/(Пиксели*Кадры) : 0.072
    Размер потока : 1, 86 Гбайт (97%)
    Default : Да
    Forced : Нет
    Аудио
    Идентификатор : 2
    Формат : AAC
    Формат/Информация : Advanced Audio Codec
    Профиль формата : LC
    Идентификатор кодека : A_AAC-2
    Продолжительность : 1 ч. 11 м.
    Битрейт : 128 Кбит/сек
    Каналы : 2 канала
    Расположение каналов : Front: L R
    Частота : 48, 0 КГц
    Частота кадров : 46, 875 кадров/сек (1024 SPF)
    Метод сжатия : С потерями
    Размер потока : 65, 7 Мбайт (3%)
    Default : Да
    Forced : Нет

    Общее
    Уникальный идентификатор : 126362604079196093388799678137304504675 (0x5F108D63D709235BF622E3A0DC5E5963)
    Полное имя : F: SPORTФигурное катаниеISU Figure Skating Grand Prix.Skate America 2018. 1StISU GP Skate America 2018.Everett(USA). Day 1_1080p2. Skate America 2018.Everett(USA). Men SP (19.10.2018).mkv
    Формат : Matroska
    Версия формата : Version 4/Version 2
    Размер файла : 2, 41 Гбайт
    Продолжительность : 1 ч. 37 м.
    Общий поток : 3546 Кбит/сек
    Дата кодирования : UTC 2018-10-23 15: 03: 52
    Программа кодирования : mkvmerge v28.0.0 (\'Voice In My Head\') 32-bit
    Библиотека кодирования : libebml v1.3.6 + libmatroska v1.4.9
    Видео
    Идентификатор : 1
    Формат : AVC
    Формат/Информация : Advanced Video Codec
    Профиль формата : High@L4.1
    Настройки формата : CABAC/4 Ref Frames
    Параметр CABAC формата : Да
    Параметр RefFrames формата : 4 кадра
    Идентификатор кодека : V_MPEG4/ISO/AVC
    Продолжительность : 1 ч. 37 м.
    Битрейт : 3416 Кбит/сек
    Ширина : 1920 пикселей
    Высота : 1080 пикселей
    Соотношение сторон : 16: 9
    Режим частоты кадров : Постоянный
    Частота кадров : 25, 000 кадров/сек
    Цветовое пространство : YUV
    Субдискретизация насыщенности : 4: 2: 0
    Битовая глубина : 8 бит
    Тип развёртки : Прогрессивная
    Бит/(Пиксели*Кадры) : 0.066
    Размер потока : 2, 32 Гбайт (96%)
    Default : Да
    Forced : Нет
    Аудио
    Идентификатор : 2
    Формат : AAC
    Формат/Информация : Advanced Audio Codec
    Профиль формата : LC
    Идентификатор кодека : A_AAC-2
    Продолжительность : 1 ч. 37 м.
    Битрейт : 128 Кбит/сек
    Каналы : 2 канала
    Расположение каналов : Front: L R
    Частота : 48, 0 КГц
    Частота кадров : 46, 875 кадров/сек (1024 SPF)
    Метод сжатия : С потерями
    Размер потока : 89, 1 Мбайт (4%)
    Default : Да
    Forced : Нет

    Скриншоты для ознакомления



    Все одноименные релизы в Клубе
    Время раздачи: 24/7 (около 1 месяца)


    Фигурное катание. Гран-при 2018-2019. 1-й Этап. Skate America 2018. Эверетт (США). 1-й День (19.10.2018) WEB-DL [H.264/1080p-LQ]
    Рейтинг →
     (голосов: 1, оценка 5/5, голосовать можно 1 раз )

    Другие торренты по теме:

  • Фигурное катание. Чемпионат России 2015. Екатеринбург (Россия). Показательные выступления (27.12.2015) (2015) HDTVRip [H.264 / 720p-LQ] скачать через торрент бесплатно
  • Фигурное катание. Чемпионат России 2015. Екатеринбург (Россия). Женщины. Произвольная программа (26.12.2015) HDTVRip [H.264 / 720p-LQ] скачать через торрент бесплатно
  • Фигурное Катание. Чемпионат России 2015. Женщины. Короткая программа. (25.12.2015) HDTVRip [H.264 / 720p-LQ] скачать через торрент бесплатно
  • Фигурное катание. Чемпионат Европы 2016. Женщины. Короткая программа. (27.01.2016) HDTVRip [H.264 / 720p-LQ]
  • Фигурное катание. Чемпионат Европы 2016. Танцы. Короткая программа. (28.01.2016) HDTVRip [H.264 / 720p-LQ]
  • Фигурное катание. Чемпионат Европы 2016. Мужчины. Короткая программа. (27.01.2016) HDTVRip [H.264 / 720p-LQ]
  • Фигурное катание. Чемпионат Европы 2016. Мужчины. Произвольная программа. (28.01.2016) HDTVRip [H.264 / 720p-LQ]
  • Фигурное катание. Чемпионат Европы 2016. Пары. Короткая программа. (29.01.2016) HDTVRip [H.264 / 720p-LQ]


    • Комментарии (0):

      Информация

      Информация

        Посетители, находящиеся в группе Гости, не могут оставлять комментарии в данной новости.

        ↓ Меню




        ↓ Опрос

        Вы добавили сайт в закладки?
        Да
        Нет


        Top 10 за месяц (Передачи)