.
Авторизация | Регистрация
Хочешь лучшие торренты? Добавь свой email!
Добавить

Торрент скачать бесплатно

  • support: webmaster@btracker.club
» » Фигурное катание. Гран-при 2018-2019. 1-й Этап. Skate America 2018. Эверетт (США). 2-й День (20.10.2018) WEB-DL [H.264 / 1080p-LQ] торрент скачать бесплатно


    Фигурное катание. Гран-при 2018-2019. 1-й Этап. Skate America 2018. Эверетт (США). 2-й День (20.10.2018) WEB-DL [H.264 / 1080p-LQ] торрент скачать бесплатно

    Опубликовал: fregat | Дата: 31-10-2018, 05:00 | .torrent скачали: 0

    Фигурное катание. Гран-при 2018-2019. 1-й Этап. Skate America 2018. Эверетт (США). 2-й День (20.10.2018) WEB-DL [H.264 / 1080p-LQ]Телекомпания: Eurosport
    Жанр: Спорт

    Описание

    Турнир Skate America 2018 — 1-й Этап Гран-при по фигурному катанию сезон любимого сериалаа 2018—2019.
    2-й День. Суббота, 20 октября 2018 года:
    23: 10 (мск) - Спортивные пары. Произвольная программа
    Воскресенье, 21 октября 2018 года:
    01: 03 (мск) - Мужчины. Произвольная программа
    Церемония награждения: Мужчины и Спортивные пары.
    05: 19 (мск) - Женщины. Короткая программа
    07: 10 (мск) - Танцы на льду. Ритм-танец
    Арена: Энджел оф зе Виндз (Эверетт, США)
    Продолжительность: 01: 23: 05 — 02: 17: 34
    Качество видео: WEB-DL
    Перевод: Не требуется, нет голосовых комментариев
    Язык озвучки: Интершум
    Субтитры: отсутствуют
    Видео: AVC/H.264, 1920x1080 (16: 9), ~6016-6037 Kbps
    Аудио: AAC, 2 ch, 192-252 Kbps

    Общее
    Уникальный идентификатор : 159010122614938901003313265230138145401 (0x77A03C543EC532E8D5D8DA4F84297A79)
    Полное имя : F: SPORTФигурное катаниеISU Figure Skating Grand Prix.Skate America 2018. 1StISU GP Skate America 2018.Everett(USA).1Ev. Day 2_1080p. Skate America 2018.Everett(USA). Pairs FS (20.10.2018).mkv
    Формат : Matroska
    Версия формата : Version 4/Version 2
    Размер файла : 3, 61 Гбайт
    Продолжительность : 1 ч. 23 м.
    Общий поток : 6226 Кбит/сек
    Дата кодирования : UTC 2018-10-23 15: 49: 14
    Программа кодирования : mkvmerge v28.0.0 ('Voice In My Head') 32-bit
    Библиотека кодирования : libebml v1.3.6 + libmatroska v1.4.9
    Видео
    Идентификатор : 1
    Формат : AVC
    Формат/Информация : Advanced Video Codec
    Профиль формата : High@L4
    Настройки формата : CABAC/4 Ref Frames
    Параметр CABAC формата : Да
    Параметр RefFrames формата : 4 кадра
    Идентификатор кодека : V_MPEG4/ISO/AVC
    Продолжительность : 1 ч. 23 м.
    Битрейт : 6032 Кбит/сек
    Ширина : 1920 пикселей
    Высота : 1080 пикселей
    Соотношение сторон : 16: 9
    Режим частоты кадров : Постоянный
    Частота кадров : 30, 000 кадров/сек
    Цветовое пространство : YUV
    Субдискретизация насыщенности : 4: 2: 0
    Битовая глубина : 8 бит
    Тип развёртки : Прогрессивная
    Бит/(Пиксели*Кадры) : 0.097
    Размер потока : 3, 50 Гбайт (97%)
    Default : Да
    Forced : Нет
    Аудио
    Идентификатор : 2
    Формат : AAC
    Формат/Информация : Advanced Audio Codec
    Профиль формата : LC
    Идентификатор кодека : A_AAC-2
    Продолжительность : 1 ч. 23 м.
    Битрейт : 192 Кбит/сек
    Каналы : 2 канала
    Расположение каналов : Front: L R
    Частота : 48, 0 КГц
    Частота кадров : 46, 875 кадров/сек (1024 SPF)
    Метод сжатия : С потерями
    Размер потока : 114 Мбайт (3%)
    Default : Да
    Forced : Нет

    Общее
    Уникальный идентификатор : 144715105479637137602879368482088923006 (0x6CDF1D91B9A24262F4CBF6976B5DAF7E)
    Полное имя : F: SPORTФигурное катаниеISU Figure Skating Grand Prix.Skate America 2018. 1StISU GP Skate America 2018.Everett(USA).1Ev. Day 2_1080p. Skate America 2018.Everett(USA). Men FS (20.10.2018).mkv
    Формат : Matroska
    Версия формата : Version 4/Version 2
    Размер файла : 5, 99 Гбайт
    Продолжительность : 2 ч. 17 м.
    Общий поток : 6231 Кбит/сек
    Дата кодирования : UTC 2018-10-23 16: 43: 25
    Программа кодирования : mkvmerge v28.0.0 ('Voice In My Head') 32-bit
    Библиотека кодирования : libebml v1.3.6 + libmatroska v1.4.9
    Видео
    Идентификатор : 1
    Формат : AVC
    Формат/Информация : Advanced Video Codec
    Профиль формата : High@L4
    Настройки формата : CABAC/4 Ref Frames
    Параметр CABAC формата : Да
    Параметр RefFrames формата : 4 кадра
    Идентификатор кодека : V_MPEG4/ISO/AVC
    Продолжительность : 2 ч. 17 м.
    Битрейт : 6036 Кбит/сек
    Ширина : 1920 пикселей
    Высота : 1080 пикселей
    Соотношение сторон : 16: 9
    Режим частоты кадров : Постоянный
    Частота кадров : 30, 000 кадров/сек
    Цветовое пространство : YUV
    Субдискретизация насыщенности : 4: 2: 0
    Битовая глубина : 8 бит
    Тип развёртки : Прогрессивная
    Бит/(Пиксели*Кадры) : 0.097
    Размер потока : 5, 80 Гбайт (97%)
    Default : Да
    Forced : Нет
    Аудио
    Идентификатор : 2
    Формат : AAC
    Формат/Информация : Advanced Audio Codec
    Профиль формата : LC
    Идентификатор кодека : A_AAC-2
    Продолжительность : 2 ч. 17 м.
    Битрейт : 192 Кбит/сек
    Каналы : 2 канала
    Расположение каналов : Front: L R
    Частота : 48, 0 КГц
    Частота кадров : 46, 875 кадров/сек (1024 SPF)
    Метод сжатия : С потерями
    Размер потока : 189 Мбайт (3%)
    Default : Да
    Forced : Нет

    Общее
    Уникальный идентификатор : 239917146651972237482730069703360425272 (0xB47E5C97C650F7DAD23C1472FA7AAD38)
    Полное имя : F: SPORTФигурное катаниеISU Figure Skating Grand Prix.Skate America 2018. 1StISU GP Skate America 2018.Everett(USA).1Ev. Day 2_1080p. Skate America 2018.Everett(USA). Ladies SP (20.10.2018).mkv
    Формат : Matroska
    Версия формата : Version 4/Version 2
    Размер файла : 4, 10 Гбайт
    Продолжительность : 1 ч. 33 м.
    Режим общего битрейта : Переменный
    Общий поток : 6269 Кбит/сек
    Дата кодирования : UTC 2018-10-24 06: 07: 35
    Программа кодирования : mkvmerge v28.0.0 ('Voice In My Head') 32-bit
    Библиотека кодирования : libebml v1.3.6 + libmatroska v1.4.9
    Видео
    Идентификатор : 1
    Формат : AVC
    Формат/Информация : Advanced Video Codec
    Профиль формата : High@L4
    Настройки формата : CABAC/4 Ref Frames
    Параметр CABAC формата : Да
    Параметр RefFrames формата : 4 кадра
    Идентификатор кодека : V_MPEG4/ISO/AVC
    Продолжительность : 1 ч. 33 м.
    Вид битрейта : Переменный
    Битрейт : 6016 Кбит/сек
    Максимальный битрейт : 16, 0 Мбит/сек
    Ширина : 1920 пикселей
    Высота : 1080 пикселей
    Соотношение сторон : 16: 9
    Режим частоты кадров : Постоянный
    Частота кадров : 30, 000 кадров/сек
    Цветовое пространство : YUV
    Субдискретизация насыщенности : 4: 2: 0
    Битовая глубина : 8 бит
    Тип развёртки : Прогрессивная
    Бит/(Пиксели*Кадры) : 0.097
    Размер потока : 3, 93 Гбайт (96%)
    Default : Да
    Forced : Нет
    Аудио
    Идентификатор : 2
    Формат : AAC
    Формат/Информация : Advanced Audio Codec
    Профиль формата : LC
    Идентификатор кодека : A_AAC-2
    Продолжительность : 1 ч. 33 м.
    Битрейт : 251 Кбит/сек
    Каналы : 2 канала
    Расположение каналов : Front: L R
    Частота : 44, 1 КГц
    Частота кадров : 43, 066 кадра/сек (1024 SPF)
    Метод сжатия : С потерями
    Размер потока : 168 Мбайт (4%)
    Default : Да
    Forced : Нет

    Общее
    Уникальный идентификатор : 18665658283085915702512516766918982479 (0xE0AE0016F9480AA5E73EC95E0BB3B4F)
    Полное имя : F: SPORTФигурное катаниеISU Figure Skating Grand Prix.Skate America 2018. 1StISU GP Skate America 2018.Everett(USA).1Ev. Day 2_1080p. Skate America 2018.Everett(USA). Ice Dance RD (20.10.2018).mkv
    Формат : Matroska
    Версия формата : Version 4/Version 2
    Размер файла : 3, 69 Гбайт
    Продолжительность : 1 ч. 23 м.
    Режим общего битрейта : Переменный
    Общий поток : 6292 Кбит/сек
    Дата кодирования : UTC 2018-10-24 05: 38: 32
    Программа кодирования : mkvmerge v28.0.0 ('Voice In My Head') 32-bit
    Библиотека кодирования : libebml v1.3.6 + libmatroska v1.4.9
    Видео
    Идентификатор : 1
    Формат : AVC
    Формат/Информация : Advanced Video Codec
    Профиль формата : High@L4
    Настройки формата : CABAC/4 Ref Frames
    Параметр CABAC формата : Да
    Параметр RefFrames формата : 4 кадра
    Идентификатор кодека : V_MPEG4/ISO/AVC
    Продолжительность : 1 ч. 23 м.
    Вид битрейта : Переменный
    Битрейт : 6037 Кбит/сек
    Максимальный битрейт : 16, 0 Мбит/сек
    Ширина : 1920 пикселей
    Высота : 1080 пикселей
    Соотношение сторон : 16: 9
    Режим частоты кадров : Постоянный
    Частота кадров : 30, 000 кадров/сек
    Цветовое пространство : YUV
    Субдискретизация насыщенности : 4: 2: 0
    Битовая глубина : 8 бит
    Тип развёртки : Прогрессивная
    Бит/(Пиксели*Кадры) : 0.097
    Размер потока : 3, 54 Гбайт (96%)
    Default : Да
    Forced : Нет
    Аудио
    Идентификатор : 2
    Формат : AAC
    Формат/Информация : Advanced Audio Codec
    Профиль формата : LC
    Идентификатор кодека : A_AAC-2
    Продолжительность : 1 ч. 23 м.
    Битрейт : 252 Кбит/сек
    Каналы : 2 канала
    Расположение каналов : Front: L R
    Частота : 44, 1 КГц
    Частота кадров : 43, 066 кадра/сек (1024 SPF)
    Метод сжатия : С потерями
    Размер потока : 151 Мбайт (4%)
    Default : Да
    Forced : Нет

    Скриншоты для ознакомления



    Все одноименные релизы в Клубе
    Время раздачи: 24/7 (около 1 месяца)


    Фигурное катание. Гран-при 2018-2019. 1-й Этап. Skate America 2018. Эверетт (США). 2-й День (20.10.2018) WEB-DL [H.264/1080p-LQ]
    Рейтинг →
     (голосов: 1, оценка 5/5, голосовать можно 1 раз )

    Другие торренты по теме:

  • Фигурное катание. Чемпионат России 2015. Екатеринбург (Россия). Показательные выступления (27.12.2015) (2015) HDTVRip [H.264 / 720p-LQ] скачать через торрент бесплатно
  • Фигурное катание. Чемпионат России 2015. Екатеринбург (Россия). Женщины. Произвольная программа (26.12.2015) HDTVRip [H.264 / 720p-LQ] скачать через торрент бесплатно
  • Фигурное Катание. Чемпионат России 2015. Женщины. Короткая программа. (25.12.2015) HDTVRip [H.264 / 720p-LQ] скачать через торрент бесплатно
  • Фигурное катание. Чемпионат Европы 2016. Женщины. Короткая программа. (27.01.2016) HDTVRip [H.264 / 720p-LQ]
  • Фигурное катание. Чемпионат Европы 2016. Танцы. Короткая программа. (28.01.2016) HDTVRip [H.264 / 720p-LQ]
  • Фигурное катание. Чемпионат Европы 2016. Мужчины. Короткая программа. (27.01.2016) HDTVRip [H.264 / 720p-LQ]
  • Фигурное катание. Чемпионат Европы 2016. Мужчины. Произвольная программа. (28.01.2016) HDTVRip [H.264 / 720p-LQ]
  • Фигурное катание. Чемпионат Европы 2016. Пары. Короткая программа. (29.01.2016) HDTVRip [H.264 / 720p-LQ]


    • Комментарии (0):

      Информация

      Информация

        Посетители, находящиеся в группе Гости, не могут оставлять комментарии в данной новости.

        ↓ Меню




        ↓ Опрос

        Вы добавили сайт в закладки?
        Да
        Нет


        Top 10 за месяц (Передачи)

        Революция. Западня для России (2017) HDTVRip [H.264 / 720p-LQ] (фильм 1)

        (скачиваний: 75)
        Осторожно, Задов! Или похождения прапорщика (2004) DVDRip [H.264] (29 серий из 29)

        (скачиваний: 54)
        Мир наизнанку Бразилия / Світ навиворіт (2018) WEB-DLRip [H.264 / 1080p-LQ] (Сезон 10, серии 1-2 из ... ) Обновляемая

        (скачиваний: 36)
        Революция. Западня для России (2018) (Сезон 2, Серия 1 из 2) DVB [H.264 / 1080i-LQ] (Обновляемая)

        (скачиваний: 31)
        Гай Юлий Орловский | Цикл «Юджин - повелитель времени» [9 книг. Обновляемая] (2015-2017) [FB2]

        (скачиваний: 29)
        Александр Мазин | Вождь викингов (2016) [MP3]

        (скачиваний: 27)
        Уральские пельмени. 50 оттенков загорелого (2017.10.27) WEB-DL [H.264 / 720p-LQ]

        (скачиваний: 22)
        6 Кадров (2006-2015) SATRip / WEBRip (сезоны 1-8, выпуски 1-321 из) + Дополнения

        (скачиваний: 22)
        Орел и решка. Морской сезон. По морям 2 (2018) WEB-DLRip (сезон 18, выпуск 1-3 из 20) (обновляемая)

        (скачиваний: 21)
        Футбол. Лига Европы УЕФА 2018-2019. Группа G. 3-й тур. Рейнджерс (Шотландия) – Спартак (Россия) (25.10.2018) WEB-DL [H.264 / 720p-LQ]

        (скачиваний: 21)