.
Авторизация | Регистрация
Хочешь лучшие торренты? Добавь свой email!
Добавить

Торрент скачать бесплатно

  • support: webmaster@btracker.club
» » Фигурное катание. Гран-при 2018-2019. 1-й Этап. Skate America 2018. Эверетт (США). 3-й День (21.10.2018) WEB-DL [H.264 / 1080p-LQ] торрент скачать бесплатно


    Фигурное катание. Гран-при 2018-2019. 1-й Этап. Skate America 2018. Эверетт (США). 3-й День (21.10.2018) WEB-DL [H.264 / 1080p-LQ] торрент скачать бесплатно

    Опубликовал: fregat | Дата: 31-10-2018, 05:00 | .torrent скачали: 1

    Фигурное катание. Гран-при 2018-2019. 1-й Этап. Skate America 2018. Эверетт (США). 3-й День (21.10.2018) WEB-DL [H.264 / 1080p-LQ]Телекомпания: Eurosport
    Жанр: Спорт

    Описание

    Турнир Skate America 2018 — 1-й Этап Гран-при по фигурному катанию сезон любимого сериалаа 2018—2019.
    3-й День. Воскресенье, 21 октября 2018 года:
    21: 00 (мск) - Танцы на льду. Произвольный танец
    23: 03 (мск) - Женщины. Произвольная программа
    Церемония награждения: Женщины и Танцы на льду
    Понедельник, 22 октября 2018 года:
    04: 15 (мск) - Показательные выступления
    Арена: Энджел оф зе Виндз (Эверетт, США)
    Продолжительность: 01: 37: 58 — 02: 08: 13
    Качество видео: WEB-DL
    Перевод: Не требуется, нет голосовых комментариев
    Язык озвучки: Интершум
    Субтитры: отсутствуют
    Видео: AVC/H.264, 1920x1080 (16: 9), ~6122-6295 Kbps
    Аудио: AAC, 2 ch, 44, 1 kHz, 256 Kbps

    Общее
    Уникальный идентификатор : 199903548382585275619716947522180660088 (0x966405E224C6B167C8C240FB0BD8BB78)
    Полное имя : F: SPORTФигурное катаниеISU Figure Skating Grand Prix.Skate America 2018. 1StISU GP Skate America 2018.Everett(USA).1Ev. Day 3_1080p1. Skate America 2018.Everett(USA). Ice Dance FD (21.10.2018).mkv
    Формат : Matroska
    Версия формата : Version 4/Version 2
    Размер файла : 4, 37 Гбайт
    Продолжительность : 1 ч. 37 м.
    Общий поток : 6381 Кбит/сек
    Дата кодирования : UTC 2018-10-24 07: 10: 23
    Программа кодирования : mkvmerge v28.0.0 (\'Voice In My Head\') 32-bit
    Библиотека кодирования : libebml v1.3.6 + libmatroska v1.4.9
    Видео
    Идентификатор : 1
    Формат : AVC
    Формат/Информация : Advanced Video Codec
    Профиль формата : High@L4
    Настройки формата : CABAC/4 Ref Frames
    Параметр CABAC формата : Да
    Параметр RefFrames формата : 4 кадра
    Идентификатор кодека : V_MPEG4/ISO/AVC
    Продолжительность : 1 ч. 37 м.
    Битрейт : 6122 Кбит/сек
    Ширина : 1920 пикселей
    Высота : 1080 пикселей
    Соотношение сторон : 16: 9
    Режим частоты кадров : Постоянный
    Частота кадров : 30, 000 кадров/сек
    Цветовое пространство : YUV
    Субдискретизация насыщенности : 4: 2: 0
    Битовая глубина : 8 бит
    Тип развёртки : Прогрессивная
    Бит/(Пиксели*Кадры) : 0.098
    Размер потока : 4, 19 Гбайт (96%)
    Default : Да
    Forced : Нет
    Аудио
    Идентификатор : 2
    Формат : AAC
    Формат/Информация : Advanced Audio Codec
    Профиль формата : LC
    Идентификатор кодека : A_AAC-2
    Продолжительность : 1 ч. 37 м.
    Битрейт : 256 Кбит/сек
    Каналы : 2 канала
    Расположение каналов : Front: L R
    Частота : 44, 1 КГц
    Частота кадров : 43, 066 кадра/сек (1024 SPF)
    Метод сжатия : С потерями
    Размер потока : 179 Мбайт (4%)
    Default : Да
    Forced : Нет

    Общее
    Уникальный идентификатор : 5154521635021999998033999059759096416 (0x3E0B989A5D354EABB6E211F36DB6260)
    Полное имя : F: SPORTФигурное катаниеISU Figure Skating Grand Prix.Skate America 2018. 1StISU GP Skate America 2018.Everett(USA).1Ev. Day 3_1080p2. Skate America 2018.Everett(USA). Ladies FS (21.10.2018).mkv
    Формат : Matroska
    Версия формата : Version 4/Version 2
    Размер файла : 5, 87 Гбайт
    Продолжительность : 2 ч. 8 м.
    Режим общего битрейта : Переменный
    Общий поток : 6553 Кбит/сек
    Дата кодирования : UTC 2018-10-24 09: 20: 58
    Программа кодирования : mkvmerge v28.0.0 (\'Voice In My Head\') 32-bit
    Библиотека кодирования : libebml v1.3.6 + libmatroska v1.4.9
    Видео
    Идентификатор : 1
    Формат : AVC
    Формат/Информация : Advanced Video Codec
    Профиль формата : High@L4
    Настройки формата : CABAC/4 Ref Frames
    Параметр CABAC формата : Да
    Параметр RefFrames формата : 4 кадра
    Идентификатор кодека : V_MPEG4/ISO/AVC
    Продолжительность : 2 ч. 8 м.
    Вид битрейта : Переменный
    Битрейт : 6295 Кбит/сек
    Максимальный битрейт : 16, 0 Мбит/сек
    Ширина : 1920 пикселей
    Высота : 1080 пикселей
    Соотношение сторон : 16: 9
    Режим частоты кадров : Постоянный
    Частота кадров : 30, 000 кадров/сек
    Цветовое пространство : YUV
    Субдискретизация насыщенности : 4: 2: 0
    Битовая глубина : 8 бит
    Тип развёртки : Прогрессивная
    Бит/(Пиксели*Кадры) : 0.101
    Размер потока : 5, 64 Гбайт (96%)
    Default : Да
    Forced : Нет
    Аудио
    Идентификатор : 2
    Формат : AAC
    Формат/Информация : Advanced Audio Codec
    Профиль формата : LC
    Идентификатор кодека : A_AAC-2
    Продолжительность : 2 ч. 8 м.
    Битрейт : 256 Кбит/сек
    Каналы : 2 канала
    Расположение каналов : Front: L R
    Частота : 44, 1 КГц
    Частота кадров : 43, 066 кадра/сек (1024 SPF)
    Метод сжатия : С потерями
    Размер потока : 235 Мбайт (4%)
    Default : Да
    Forced : Нет

    Общее
    Уникальный идентификатор : 231107824488650309515057999362113804421 (0xADDDBF7A138F5F7663407F6D4F4A1885)
    Полное имя : F: SPORTФигурное катаниеISU Figure Skating Grand Prix.Skate America 2018. 1StISU GP Skate America 2018.Everett(USA).1Ev. Day 3_1080p3. Skate America 2018.Everett(USA). Gala-Show (21.10.2018).mkv
    Формат : Matroska
    Версия формата : Version 4/Version 2
    Размер файла : 5, 08 Гбайт
    Продолжительность : 1 ч. 52 м.
    Общий поток : 6441 Кбит/сек
    Дата кодирования : UTC 2018-10-24 10: 03: 43
    Программа кодирования : mkvmerge v28.0.0 (\'Voice In My Head\') 32-bit
    Библиотека кодирования : libebml v1.3.6 + libmatroska v1.4.9
    Видео
    Идентификатор : 1
    Формат : AVC
    Формат/Информация : Advanced Video Codec
    Профиль формата : High@L4
    Настройки формата : CABAC/4 Ref Frames
    Параметр CABAC формата : Да
    Параметр RefFrames формата : 4 кадра
    Параметр GOP формата : M=1, N=15
    Идентификатор кодека : V_MPEG4/ISO/AVC
    Продолжительность : 1 ч. 52 м.
    Битрейт : 6182 Кбит/сек
    Ширина : 1920 пикселей
    Высота : 1080 пикселей
    Соотношение сторон : 16: 9
    Режим частоты кадров : Постоянный
    Частота кадров : 30, 000 кадров/сек
    Цветовое пространство : YUV
    Субдискретизация насыщенности : 4: 2: 0
    Битовая глубина : 8 бит
    Тип развёртки : Прогрессивная
    Бит/(Пиксели*Кадры) : 0.099
    Размер потока : 4, 88 Гбайт (96%)
    Default : Да
    Forced : Нет
    Аудио
    Идентификатор : 2
    Формат : AAC
    Формат/Информация : Advanced Audio Codec
    Профиль формата : LC
    Идентификатор кодека : A_AAC-2
    Продолжительность : 1 ч. 52 м.
    Битрейт : 256 Кбит/сек
    Каналы : 2 канала
    Расположение каналов : Front: L R
    Частота : 44, 1 КГц
    Частота кадров : 43, 066 кадра/сек (1024 SPF)
    Метод сжатия : С потерями
    Размер потока : 207 Мбайт (4%)
    Default : Да
    Forced : Нет

    Скриншоты для ознакомления



    Все одноименные релизы в Клубе
    Время раздачи: 24/7 (около 1 месяца)


    Фигурное катание. Гран-при 2018-2019. 1-й Этап. Skate America 2018. Эверетт (США). 3-й День (21.10.2018) WEB-DL [H.264/1080p-LQ]
    Рейтинг →
     (голосов: 1, оценка 3/5, голосовать можно 1 раз )

    Другие торренты по теме:

  • Фигурное катание. Чемпионат России 2015. Екатеринбург (Россия). Показательные выступления (27.12.2015) (2015) HDTVRip [H.264 / 720p-LQ] скачать через торрент бесплатно
  • Фигурное катание. Чемпионат России 2015. Екатеринбург (Россия). Женщины. Произвольная программа (26.12.2015) HDTVRip [H.264 / 720p-LQ] скачать через торрент бесплатно
  • Фигурное Катание. Чемпионат России 2015. Женщины. Короткая программа. (25.12.2015) HDTVRip [H.264 / 720p-LQ] скачать через торрент бесплатно
  • Фигурное катание. Чемпионат Европы 2016. Женщины. Короткая программа. (27.01.2016) HDTVRip [H.264 / 720p-LQ]
  • Фигурное катание. Чемпионат Европы 2016. Танцы. Короткая программа. (28.01.2016) HDTVRip [H.264 / 720p-LQ]
  • Фигурное катание. Чемпионат Европы 2016. Мужчины. Короткая программа. (27.01.2016) HDTVRip [H.264 / 720p-LQ]
  • Фигурное катание. Чемпионат Европы 2016. Мужчины. Произвольная программа. (28.01.2016) HDTVRip [H.264 / 720p-LQ]
  • Фигурное катание. Чемпионат Европы 2016. Пары. Короткая программа. (29.01.2016) HDTVRip [H.264 / 720p-LQ]


    • Комментарии (0):

      Информация

      Информация

        Посетители, находящиеся в группе Гости, не могут оставлять комментарии в данной новости.

        ↓ Меню




        ↓ Опрос

        Вы добавили сайт в закладки?
        Да
        Нет


        Top 10 за месяц (Передачи)