.
Авторизация | Регистрация
Хочешь лучшие торренты? Добавь свой email!
Добавить

Торрент скачать бесплатно

  • support: webmaster@btracker.club
» » Горные лыжи. Кубок мира 2018–2019. 1-й Этап. Зёльден (Австрия). Женщины. Гигантский слалом (27.10.2018) IPTV [H.264 / 1080i-LQ] торрент скачать бесплатно


    Горные лыжи. Кубок мира 2018–2019. 1-й Этап. Зёльден (Австрия). Женщины. Гигантский слалом (27.10.2018) IPTV [H.264 / 1080i-LQ] торрент скачать бесплатно

    Опубликовал: fregat | Дата: 31-10-2018, 05:00 | .torrent скачали: 0

    Горные лыжи. Кубок мира 2018–2019. 1-й Этап. Зёльден (Австрия). Женщины. Гигантский слалом (27.10.2018) IPTV [H.264 / 1080i-LQ]Телекомпания: Eurosport 1 HD
    Жанр: Спорт
    Комментатор: Владимир Андреев

    Описание
    27 октября 2018 года, суббота.
    1-й Этап Кубка мира по горнолыжному спорту сезон любимого сериалаа 2018-2019 года
    Зёльден (Австрия).
    Женщины. Гигантский слалом. 1-я и 2-я попытка
    Релиз от: notq
    Продолжительность: 00: 54: 40 — 01: 01: 25
    Качество видео: IPTV
    Язык озвучки: Русский, Английский
    Субтитры: отсутствуют
    Видео: AVC/H.264, 1920x1080 (16: 9), ~5052-5058 Kbps
    Аудио #1: MP2, 2 ch, 48 kHz, 192 Kbps | Русский
    Аудио #2: MP2, 2 ch, 48 kHz, 192 Kbps | Английский

    Общее
    Идентификатор : 1 (0x1)
    Полное имя : F: SPORTГорные лыжиAlpine Skiing - Soelden (AUT) Ladies Giant Slalom - Eurosport 1 HD (27.10.2018)st run.ts
    Формат : MPEG-TS
    Размер файла : 2, 19 Гбайт
    Продолжительность : 54 м. 39 с.
    Режим общего битрейта : Переменный
    Общий поток : 5723 Кбит/сек
    Видео
    Идентификатор : 68 (0x44)
    Идентификатор меню : 1 (0x1)
    Формат : AVC
    Формат/Информация : Advanced Video Codec
    Профиль формата : High@L4
    Настройки формата : CABAC/4 Ref Frames
    Параметр CABAC формата : Да
    Параметр RefFrames формата : 4 кадра
    Идентификатор кодека : 27
    Продолжительность : 54 м. 39 с.
    Битрейт : 5052 Кбит/сек
    Ширина : 1920 пикселей
    Высота : 1080 пикселей
    Соотношение сторон : 16: 9
    Частота кадров : 25, 000 кадров/сек
    Стандарт вещания : Component
    Цветовое пространство : YUV
    Субдискретизация насыщенности : 4: 2: 0
    Битовая глубина : 8 бит
    Тип развёртки : Чересстрочная
    Метод сохранения типа развёртки : Раздельные поля
    Порядок развёртки : Верхнее поле первое
    Бит/(Пиксели*Кадры) : 0.097
    Размер потока : 1, 93 Гбайт (88%)
    Цветовой диапазон : Limited
    Основные цвета : BT.709
    Характеристики трансфера : BT.709
    Коэффициенты матрицы : BT.709
    Аудио #1
    Идентификатор : 69 (0x45)
    Идентификатор меню : 1 (0x1)
    Формат : MPEG Audio
    Версия формата : Version 1
    Профиль формата : Layer 2
    Идентификатор кодека : 3
    Продолжительность : 54 м. 39 с.
    Вид битрейта : Постоянный
    Битрейт : 192 Кбит/сек
    Каналы : 2 канала
    Частота : 48, 0 КГц
    Частота кадров : 41, 667 кадра/сек (1152 SPF)
    Метод сжатия : С потерями
    Задержка видео : -80 мс.
    Размер потока : 75, 1 Мбайт (3%)
    Язык : Russian
    Аудио #2
    Идентификатор : 70 (0x46)
    Идентификатор меню : 1 (0x1)
    Формат : MPEG Audio
    Версия формата : Version 1
    Профиль формата : Layer 2
    Идентификатор кодека : 3
    Продолжительность : 54 м. 39 с.
    Вид битрейта : Постоянный
    Битрейт : 192 Кбит/сек
    Каналы : 2 канала
    Частота : 48, 0 КГц
    Частота кадров : 41, 667 кадра/сек (1152 SPF)
    Метод сжатия : С потерями
    Задержка видео : -80 мс.
    Размер потока : 75, 1 Мбайт (3%)
    Язык : English

    Общее
    Идентификатор : 1 (0x1)
    Полное имя : F: SPORTГорные лыжиAlpine Skiing - Soelden (AUT) Ladies Giant Slalom - Eurosport 1 HD (27.10.2018)nd run.ts
    Формат : MPEG-TS
    Размер файла : 2, 46 Гбайт
    Продолжительность : 1 ч. 1 м.
    Режим общего битрейта : Переменный
    Общий поток : 5729 Кбит/сек
    Видео
    Идентификатор : 67 (0x43)
    Идентификатор меню : 1 (0x1)
    Формат : AVC
    Формат/Информация : Advanced Video Codec
    Профиль формата : High@L4
    Настройки формата : CABAC/4 Ref Frames
    Параметр CABAC формата : Да
    Параметр RefFrames формата : 4 кадра
    Идентификатор кодека : 27
    Продолжительность : 1 ч. 1 м.
    Битрейт : 5058 Кбит/сек
    Ширина : 1920 пикселей
    Высота : 1080 пикселей
    Соотношение сторон : 16: 9
    Частота кадров : 25, 000 кадров/сек
    Стандарт вещания : Component
    Цветовое пространство : YUV
    Субдискретизация насыщенности : 4: 2: 0
    Битовая глубина : 8 бит
    Тип развёртки : Чересстрочная
    Метод сохранения типа развёртки : Раздельные поля
    Порядок развёртки : Верхнее поле первое
    Бит/(Пиксели*Кадры) : 0.098
    Размер потока : 2, 17 Гбайт (88%)
    Цветовой диапазон : Limited
    Основные цвета : BT.709
    Характеристики трансфера : BT.709
    Коэффициенты матрицы : BT.709
    Аудио #1
    Идентификатор : 68 (0x44)
    Идентификатор меню : 1 (0x1)
    Формат : MPEG Audio
    Версия формата : Version 1
    Профиль формата : Layer 2
    Идентификатор кодека : 3
    Продолжительность : 1 ч. 1 м.
    Вид битрейта : Постоянный
    Битрейт : 192 Кбит/сек
    Каналы : 2 канала
    Частота : 48, 0 КГц
    Частота кадров : 41, 667 кадра/сек (1152 SPF)
    Метод сжатия : С потерями
    Задержка видео : -40 мс.
    Размер потока : 84, 3 Мбайт (3%)
    Язык : Russian
    Аудио #2
    Идентификатор : 69 (0x45)
    Идентификатор меню : 1 (0x1)
    Формат : MPEG Audio
    Версия формата : Version 1
    Профиль формата : Layer 2
    Идентификатор кодека : 3
    Продолжительность : 1 ч. 1 м.
    Вид битрейта : Постоянный
    Битрейт : 192 Кбит/сек
    Каналы : 2 канала
    Частота : 48, 0 КГц
    Частота кадров : 41, 667 кадра/сек (1152 SPF)
    Метод сжатия : С потерями
    Задержка видео : -40 мс.
    Размер потока : 84, 3 Мбайт (3%)
    Язык : English

    Скриншоты для ознакомления



    Все одноименные релизы в Клубе
    Время раздачи: 24/7 (до появления первых 3-5 скачавших)


    Горные лыжи. Кубок мира 2018–2019. 1-й Этап. Зёльден (Австрия). Женщины. Гигантский слалом (27.10.2018) IPTV [H.264/1080i-LQ]
    Рейтинг →
     (голосов: 1, оценка 3/5, голосовать можно 1 раз )

    Другие торренты по теме:

  • Горные лыжи. Чемпионат мира 2017. Санкт-Мориц (Швейцария). Женщины. Альпийская комбинация (10.02.2016) WEB-DL [H.264 / 720p-LQ]
  • Горные лыжи. Чемпионат мира 2017. Санкт-Мориц (Швейцария). Мужчины. Супергигант (08.02.2016) HDTVRip [H.264 / 720p-LQ][hand made 50fps][RU,EN]
  • Горные лыжи. Чемпионат мира 2017. Санкт-Мориц (Швейцария). Мужчины. Супергигант (08.02.2016) WEB-DL [H.264 / 1080p-LQ]
  • Горные лыжи. Чемпионат мира 2017. Санкт-Мориц (Швейцария). Женщины. Супергигант (07.02.2016) WEB-DLRip [H.264 / 1080p-LQ][RU,EN]
  • Горные лыжи. Чемпионат мира 2017. Санкт-Мориц (Швейцария). Женщины. Супергигант (07.02.2016) WEB-DL [H.264 / 1080p-LQ]
  • Горные лыжи. Чемпионат мира 2017. Санкт-Мориц (Швейцария). Женщины. Супергигант (07.02.2016) HDTVRip [H.264 / 720p-LQ][hand made 50fps][RU,EN]
  • Горные лыжи. Зимняя Универсиада 2017. Алматы (Казахстан). Мужчины. Слалом 2-я попытка (07.02.2016) IPTV [H.264 / 720p-LQ][RU,EN]
  • Горные лыжи. Зимняя Универсиада 2017. Алматы (Казахстан). Женщины. Слалом - 2-я попытка (06.02.2016) WEB-DL [H.264 / 1080p-LQ]


    • Комментарии (0):

      Информация

      Информация

        Посетители, находящиеся в группе Гости, не могут оставлять комментарии в данной новости.

        ↓ Меню




        ↓ Опрос

        Вы добавили сайт в закладки?
        Да
        Нет


        Top 10 за месяц (Передачи)

        Революция. Западня для России (2017) HDTVRip [H.264 / 720p-LQ] (фильм 1)

        (скачиваний: 74)
        Осторожно, Задов! Или похождения прапорщика (2004) DVDRip [H.264] (29 серий из 29)

        (скачиваний: 43)
        Революция. Западня для России (2018) (Сезон 2, Серия 1 из 2) DVB [H.264 / 1080i-LQ] (Обновляемая)

        (скачиваний: 29)
        Александр Мазин | Вождь викингов (2016) [MP3]

        (скачиваний: 27)
        Мир наизнанку Бразилия / Світ навиворіт (2018) WEB-DLRip [H.264 / 1080p-LQ] (Сезон 10, серии 1-2 из ... ) Обновляемая

        (скачиваний: 22)
        Футбол. Лига Европы УЕФА 2018-2019. Группа G. 3-й тур. Рейнджерс (Шотландия) – Спартак (Россия) (25.10.2018) WEB-DL [H.264 / 720p-LQ]

        (скачиваний: 21)
        Queen: Дни нашей жизни / Queen: Days of Our Lives (2011) DVB (Серии 1-2 из 2)

        (скачиваний: 19)
        Гай Юлий Орловский | Цикл «Юджин - повелитель времени» [9 книг. Обновляемая] (2015-2017) [FB2]

        (скачиваний: 19)
        Орел и решка. Морской сезон. По морям 2 (2018) WEB-DLRip (сезон 18, выпуск 1-3 из 20) (обновляемая)

        (скачиваний: 13)
        Дженнифер Макмахон | Обещай, что никому не скажешь (2016) [FB2]

        (скачиваний: 13)