.
Авторизация | Регистрация
Хочешь лучшие торренты? Добавь свой email!
Добавить

Торрент скачать бесплатно

  • support: webmaster@btracker.club
» » Домашний арест. Фильм о съёмках (2018) WEB-DL [H.264 / 1080p-LQ] (выпуски 1-22 из 22) торрент скачать бесплатно


    Домашний арест. Фильм о съёмках (2018) WEB-DL [H.264 / 1080p-LQ] (выпуски 1-22 из 22) торрент скачать бесплатно

    Опубликовал: fregat | Дата: 31-10-2018, 05:00 | .torrent скачали: 0

    Домашний арест. Фильм о съёмках (2018) WEB-DL [H.264 / 1080p-LQ] (выпуски 1-22 из 22)Телекомпания: Россия/Comedy Club Production
    Жанр: Документальный, комедия, фильм о фильме
    Режиссер: Петр Буслов

    Актеры
    Павел Деревянко, Александр Робак, Егор Клинаев, Юлия Сорокина, Анна Уколова, Тимофей Трибунцев, Марина Александрова, Сергей Бурунов, Илья Коврижных, Виктория Самилкина, Анатолий Кот

    Описание

    Придумал сериал Семен Слепаков - человек, знающий толк в юморе. Ради создания этих 12 серий Семен на два года буквально выпал из жизни. По словам Слепакова, эта остросоциальная комедия показывает нам современную Россию, высмеивает взаимоотношения власти и народа. Кроме того, в ней говорится о любви, дружбе и о том, что вовсе не деньги делают человека счастливым. В Домашнем аресте я хотел показать, что люди – это не овцы и не волки. Люди – это люди. И относиться друг к другу они должны по-человечески, деньги не должны превращаться в смысл жизни, создатели сериала и стремились донести до зрителя, - сказал Семён. Съемки сериала проходили в Ярославле, где есть кинопроизводство, а также в Подольске и еще нескольких городах Подмосковья. В итоге и получился Синеозёрск - этакий собирательный образ российской глубинки...
    Продолжительность: ~00: 05: 00 выпуск
    Качество видео: WEB-DL
    Субтитры: Отсутствуют
    Видео: AVC/H.264, 1920x1080 (16: 9), ~4125 Kbps
    Аудио: AC3, 2 ch, 192 Kbps

    Общее
    Уникальный идентификатор : 143119727859322752980680564524573013286 (0x6BABDB612F79370D040695E3C8B83526)
    Полное имя : D: Домашний арест (2018).Фильм о съёмкахВыпуск 01.mkv
    Формат : Matroska
    Версия формата : Version 4
    Размер файла : 460 Мбайт
    Продолжительность : 14 м. 36 с.
    Общий поток : 4404 Кбит/сек
    Программа кодирования : Lavf57.71.100
    Библиотека кодирования : Lavf57.71.100
    ErrorDetectionType : Per level 1
    Видео
    Идентификатор : 1
    Формат : AVC/AVC
    Формат/Информация : Advanced Video Codec
    Профиль формата : Baseline@L4/Baseline@L4
    Настройки формата : 1 Ref Frames/1 Ref Frames
    Параметр CABAC формата : Нет/Нет
    Параметр RefFrames формата : 1 кадр/1 кадр
    Идентификатор кодека : V_MPEG4/ISO/AVC
    Продолжительность : 14 м. 36 с.
    Битрейт : 4125 Кбит/сек
    Ширина : 1920 пикселей
    Ширина оригинала : 1920 пикселей/1920 пикселей
    Высота : 1080 пикселей
    Высота оригинала : 1080 пикселей/1080 пикселей
    Соотношение сторон : 16: 9
    Режим частоты кадров : Переменный
    Частота кадров в оригинале : 30, 000 кадров/сек
    Цветовое пространство : YUV
    Субдискретизация насыщенности : 4: 2: 0/4: 2: 0
    Битовая глубина : 8 бит/8 бит
    Тип развёртки : Прогрессивная/Progressive
    Размер потока : 431 Мбайт (94%)
    Default : Да
    Forced : Нет
    Аудио
    Идентификатор : 2
    Формат : AC-3
    Формат/Информация : Audio Coding 3
    Коммерческое название : Dolby Digital
    Идентификатор кодека : A_AC3
    Продолжительность : 14 м. 36 с.
    Вид битрейта : Постоянный
    Битрейт : 192 Кбит/сек
    Каналы : 2 канала
    Channel layout : L R
    Частота : 48, 0 КГц
    Частота кадров : 31, 250 кадров/сек (1536 SPF)
    Битовая глубина : 16 бит
    Метод сжатия : С потерями
    Размер потока : 20, 1 Мбайт (4%)
    ServiceKind/String : Complete Main
    Default : Да
    Forced : Нет

    Скриншоты для ознакомления



    Все одноименные релизы в Клубе
    Время раздачи: 24/7 (круглосуточно) (до появления первых 3-5 скачавших)


    Домашний арест. Фильм о съёмках (2018) WEB-DL [H.264/1080p-LQ] (выпуски 1-22 из 22)
    Рейтинг →
     (голосов: 1, оценка 5/5, голосовать можно 1 раз )

    Другие торренты по теме:

  • Домашний арест / House Arrest (1996) DVDRip [H.264]
  • Домашний арест (2018) WEB-DLRip (серии 1 из 16) (обновляемая)
  • Домашний арест (2018) WEB-DLRip [H.264 / 1080p-LQ] (серии 1 из 16) (обновляемая)
  • Домашний арест (2018) WEB-DLRip [H.264 / 1080p-LQ] (серии 2-3 из 16) (обновляемая) [AD] [PR]
  • Домашний арест (2018) WEB-DL [H.264 / 720p-LQ] (серии 1-7 из 16) (обновляемая)
  • Домашний арест (2018) WEB-DLRip [H.264] (серии 1-7 из 16) (обновляемая)
  • Домашний арест (2018) WEB-DL [1080p] (сезон 1, серии 1-12 из 12) ATV


    • Комментарии (0):

      Информация

      Информация

        Посетители, находящиеся в группе Гости, не могут оставлять комментарии в данной новости.

        ↓ Меню




        ↓ Опрос

        Вы добавили сайт в закладки?
        Да
        Нет


        Top 10 за месяц (Передачи)

        Революция. Западня для России (2017) HDTVRip [H.264 / 720p-LQ] (фильм 1)

        (скачиваний: 75)
        Осторожно, Задов! Или похождения прапорщика (2004) DVDRip [H.264] (29 серий из 29)

        (скачиваний: 54)
        Мир наизнанку Бразилия / Світ навиворіт (2018) WEB-DLRip [H.264 / 1080p-LQ] (Сезон 10, серии 1-2 из ... ) Обновляемая

        (скачиваний: 36)
        Революция. Западня для России (2018) (Сезон 2, Серия 1 из 2) DVB [H.264 / 1080i-LQ] (Обновляемая)

        (скачиваний: 31)
        Гай Юлий Орловский | Цикл «Юджин - повелитель времени» [9 книг. Обновляемая] (2015-2017) [FB2]

        (скачиваний: 29)
        Александр Мазин | Вождь викингов (2016) [MP3]

        (скачиваний: 27)
        Уральские пельмени. 50 оттенков загорелого (2017.10.27) WEB-DL [H.264 / 720p-LQ]

        (скачиваний: 22)
        6 Кадров (2006-2015) SATRip / WEBRip (сезоны 1-8, выпуски 1-321 из) + Дополнения

        (скачиваний: 22)
        Орел и решка. Морской сезон. По морям 2 (2018) WEB-DLRip (сезон 18, выпуск 1-3 из 20) (обновляемая)

        (скачиваний: 21)
        Футбол. Лига Европы УЕФА 2018-2019. Группа G. 3-й тур. Рейнджерс (Шотландия) – Спартак (Россия) (25.10.2018) WEB-DL [H.264 / 720p-LQ]

        (скачиваний: 21)