.
Авторизация | Регистрация
Хочешь лучшие торренты? Добавь свой email!
Добавить

Торрент скачать бесплатно

  • support: webmaster@btracker.club
» » Россия. Нижегородская область - сердце Поволжья (2006) DVDRip торрент скачать бесплатно


    Россия. Нижегородская область - сердце Поволжья (2006) DVDRip торрент скачать бесплатно

    Опубликовал: fregat | Дата: 31-10-2018, 05:00 | .torrent скачали: 0

    Россия. Нижегородская область - сердце Поволжья (2006) DVDRipТелекомпания: РИА Свет
    Жанр: Документальный, Видовой

    Описание

    Главным оплотом Нижегородской области является её столица. Нижний Новгород - один из крупнейших городов России. Своё название город получил, потому что на момент образования был самым нижним на реке Волге. Нижегородская область - это не только красивый край, но и родина нижегородского ополчения, золотой хохломы и духовный центр Поволжья.
    Продолжительность: 00: 31: 28
    Качество видео: DVDRip
    Видео: Xvid, 704x400, ~1360 Kbps
    Аудио: AC3, 2 ch, 192 Kbps

    General
    Complete name : G: документалкаРоссия. Нижегородская область - сердце Поволжья.avi
    Format : AVI
    Format/Info : Audio Video Interleave
    File size : 351 MiB
    Duration : 31mn 28s
    Overall bit rate : 1 559 Kbps
    Writing application : VirtualDubMod 1.5.10.2 (build 2540/release)
    Writing library : VirtualDubMod build 2540/release
    Video
    ID : 0
    Format : MPEG-4 Visual
    Format profile : Advanced Simple@L5
    Format settings, BVOP : 4
    Format settings, QPel : No
    Format settings, GMC : No warppoints
    Format settings, Matrix : Custom
    Codec ID : XVID
    Codec ID/Hint : XviD
    Duration : 31mn 28s
    Bit rate : 1 357 Kbps
    Width : 704 pixels
    Height : 400 pixels
    Display aspect ratio : 16: 9
    Frame rate : 25.000 fps
    Color space : YUV
    Chroma subsampling : 4: 2: 0
    Bit depth : 8 bits
    Scan type : Progressive
    Compression mode : Lossy
    Bits/(Pixel*Frame) : 0.193
    Stream size : 305 MiB (87%)
    Writing library : XviD 1.2.1 (UTC 2008-12-04)
    Audio
    ID : 1
    Format : AC-3
    Format/Info : Audio Coding 3
    Mode extension : CM (complete main)
    Format settings, Endianness : Big
    Codec ID : 2000
    Duration : 31mn 28s
    Bit rate mode : Constant
    Bit rate : 192 Kbps
    Channel(s) : 2 channels
    Channel positions : Front: L R
    Sampling rate : 48.0 KHz
    Bit depth : 16 bits
    Compression mode : Lossy
    Stream size : 43.2 MiB (12%)
    Alignment : Split accross interleaves
    Interleave, duration : 40 ms (1.00 video frame)
    Interleave, preload duration : 500 ms

    Скриншоты для ознакомления



    Все одноименные релизы в Клубе
    Время раздачи: с 18: 00 до 23: 00 (до появления первых 3-5 скачавших)


    Россия. Нижегородская область - сердце Поволжья (2006) DVDRip
    Рейтинг →
     (голосов: 1, оценка 4/5, голосовать можно 1 раз )

    Другие торренты по теме:

  • Журнал | Story [Россия] №4 (122) (апрель 2019) [PDF]
  • Журнал | Forbes [Россия] №4 (181) (апрель 2019) [PDF]
  • Журнал | Автомир [Россия] №13 (март 2019) [PDF]
  • Александр Бушков | Тайны Сибири, или Зачем Россия ее завоевала (2018) [MP3]
  • Баскетбол. Евролига 2015-2016. Финал четырех . 1 / 2 финала. ЦСКА (Россия) - Локомотив-Кубань (Россия) (13.05.2016) HDTVRip [H.264 / 720p-LQ]
  • Баскетбол. Единая лига ВТБ.Сезон 2015-2016.Финал.1-й матч. ЦСКА(Москва, Россия) - УНИКС(Казань, Россия) (01.06.2016) HDTVRip [H.264 / 720p-LQ]
  • Баскетбол. Единая лига ВТБ.Сезон 2015-2016. Финал.2-й матч. ЦСКА(Москва, Россия) - УНИКС(Казань, Россия) (03.06.2016) HDTVRip [H.264 / 720p-LQ]
  • Баскетбол. Единая Лига ВТБ 2016-2017. Регулярный чемпионат. УНИКС (Россия) - Нижний Новгород (Россия) (02.10.2016) HDTVRip [H.264 / 720p-LQ][hand made 50fps]


    • Комментарии (0):

      Информация

      Информация

        Посетители, находящиеся в группе Гости, не могут оставлять комментарии в данной новости.

        ↓ Меню




        ↓ Опрос

        Вы добавили сайт в закладки?
        Да
        Нет


        Top 10 за месяц (Передачи)