.
Авторизация | Регистрация
Хочешь лучшие торренты? Добавь свой email!
Добавить

Торрент скачать бесплатно

  • support: webmaster@btracker.club
» » Земля героев. Илья Муромец (2014) SATRip торрент скачать бесплатно


    Земля героев. Илья Муромец (2014) SATRip торрент скачать бесплатно

    Опубликовал: fregat | Дата: 31-10-2018, 05:00 | .torrent скачали: 0

    Земля героев. Илья Муромец (2014) SATRipПроизводство: Россия, ВГТРК
    Жанр: Документальный, История
    Участники: Анастасия Шулинская, Антон Соболевский

    Описание

    Земля героев - проект, в котором сочетаются сразу 2 телевизионных жанра: историческое расследование и путевой дневник. Ведущий проекта отправляется в путешествие, в котором пытается найти места, связанные как с великими историческими деятелями далекого прошлого, так и с героями эпосов и легенд разных народов России. Задача ведущего не только интересно рассказать историю, но еще и попытаться отделить реальность от вымысла, понять, где жизнь превращается в сказку и наоборот. По пути ведущий совершает удивительные для себя и зрителей открытия.
    Продолжительность: 00: 28: 10
    Качество видео: SATRip
    Видео: Xvid, 720x400, ~1590 Kbps
    Аудио: MP3, 2 ch, 128 Kbps

    General
    Complete name : G: документалкаЗемля героев.Илья Муромец.avi
    Format : AVI
    Format/Info : Audio Video Interleave
    File size : 348 MiB
    Duration : 28mn 10s
    Overall bit rate : 1 728 Kbps
    Writing application : VirtualDubMod 1.5.10.3 |www.virtualdub-fr.org|| (build 2550/release)
    Writing library : VirtualDubMod build 2550/release
    Video
    ID : 0
    Format : MPEG-4 Visual
    Format profile : Advanced Simple@L5
    Format settings, BVOP : 2
    Format settings, QPel : No
    Format settings, GMC : No warppoints
    Format settings, Matrix : Default (MPEG)
    Codec ID : XVID
    Codec ID/Hint : XviD
    Duration : 28mn 10s
    Bit rate : 1 590 Kbps
    Width : 720 pixels
    Height : 400 pixels
    Display aspect ratio : 16: 9
    Frame rate : 25.000 fps
    Color space : YUV
    Chroma subsampling : 4: 2: 0
    Bit depth : 8 bits
    Scan type : Progressive
    Compression mode : Lossy
    Bits/(Pixel*Frame) : 0.221
    Stream size : 321 MiB (92%)
    Writing library : XviD 73
    Audio
    ID : 1
    Format : MPEG Audio
    Format version : Version 1
    Format profile : Layer 3
    Codec ID : 55
    Codec ID/Hint : MP3
    Duration : 28mn 10s
    Bit rate mode : Constant
    Bit rate : 128 Kbps
    Channel(s) : 2 channels
    Sampling rate : 48.0 KHz
    Compression mode : Lossy
    Stream size : 25.8 MiB (7%)
    Alignment : Aligned on interleaves
    Interleave, duration : 40 ms (1.00 video frame)
    Interleave, preload duration : 504 ms
    Writing library : LAME3.99r
    Encoding settings : -m s -V 4 -q 0 -lowpass 17 -b 128

    Скриншоты для ознакомления



    Все одноименные релизы в Клубе
    Время раздачи: с 18: 00 до 23: 00 (до появления первых 3-5 скачавших)


    Земля героев. Илья Муромец (2014) SATRip
    Рейтинг →
     (голосов: 1, оценка 5/5, голосовать можно 1 раз )

    Другие торренты по теме:

  • Эта твёрдая земля / Ця тверда земля (1967) WEBRip [UKR / RU Sub]
  • Большая земля (1944) DVDRip
  • Андрей Ивасенко | Земля туманов (2014) [FB2] скачать через торрент бесплатно
  • Земля обетованная / Promised Land (2012) BDRip [1080p]
  • Земля Хо! / Land Ho! (2014) BDRip [1080p] [EN]
  • Запретная земля / The Sacred (2009) HDTV [1080i] скачать через торрент бесплатно
  • BBC. Как устроена Земля / Earth Machine / Der rastlose Planet (2011) BDRip [H.264 / 1080p] [1-2 серия из 2] скачать через торрент бесплатно
  • Армения - Земля Ноя / Armenia - The Land Of Noan / Hayastan - Noyi erkir (2008) HDTVRip [720p-LQ]


    • Комментарии (0):

      Информация

      Информация

        Посетители, находящиеся в группе Гости, не могут оставлять комментарии в данной новости.

        ↓ Меню




        ↓ Опрос

        Вы добавили сайт в закладки?
        Да
        Нет


        Top 10 за месяц (Передачи)

        Революция. Западня для России (2017) HDTVRip [H.264 / 720p-LQ] (фильм 1)

        (скачиваний: 74)
        Осторожно, Задов! Или похождения прапорщика (2004) DVDRip [H.264] (29 серий из 29)

        (скачиваний: 43)
        Революция. Западня для России (2018) (Сезон 2, Серия 1 из 2) DVB [H.264 / 1080i-LQ] (Обновляемая)

        (скачиваний: 29)
        Александр Мазин | Вождь викингов (2016) [MP3]

        (скачиваний: 27)
        Мир наизнанку Бразилия / Світ навиворіт (2018) WEB-DLRip [H.264 / 1080p-LQ] (Сезон 10, серии 1-2 из ... ) Обновляемая

        (скачиваний: 22)
        Футбол. Лига Европы УЕФА 2018-2019. Группа G. 3-й тур. Рейнджерс (Шотландия) – Спартак (Россия) (25.10.2018) WEB-DL [H.264 / 720p-LQ]

        (скачиваний: 21)
        Queen: Дни нашей жизни / Queen: Days of Our Lives (2011) DVB (Серии 1-2 из 2)

        (скачиваний: 19)
        Гай Юлий Орловский | Цикл «Юджин - повелитель времени» [9 книг. Обновляемая] (2015-2017) [FB2]

        (скачиваний: 19)
        Орел и решка. Морской сезон. По морям 2 (2018) WEB-DLRip (сезон 18, выпуск 1-3 из 20) (обновляемая)

        (скачиваний: 13)
        Дженнифер Макмахон | Обещай, что никому не скажешь (2016) [FB2]

        (скачиваний: 13)